<?xml version="1.0" standalone="no"?>
<!DOCTYPE svg PUBLIC "-//W3C//DTD SVG 1.1//EN" "http://www.w3.org/Graphics/SVG/1.1/DTD/svg11.dtd" >
<svg xmlns="http://www.w3.org/2000/svg" xmlns:xlink="http://www.w3.org/1999/xlink" version="1.1">
<metadata>
Created by FontForge 20170731 at Mon Jun 22 13:22:03 2020
 By Aleksey,,,
Copyright 2020 The Poppins Project Authors (https://github.com/itfoundry/Poppins)
</metadata>
<defs>
<font id="Poppins-LightItalic" horiz-adv-x="287" >
  <font-face 
    font-family="Poppins Light"
    font-weight="300"
    font-style="italic"
    font-stretch="normal"
    units-per-em="1000"
    panose-1="0 0 4 0 0 0 0 0 0 0"
    ascent="800"
    descent="-200"
    x-height="546"
    cap-height="699"
    bbox="-517 -564 2652 1053"
    underline-thickness="50"
    underline-position="-150"
    slope="-10"
    unicode-range="U+000D-FB02"
  />
<missing-glyph horiz-adv-x="500" 
d="M0 700h500v-700h-500v700zM420 650h-340l170 -255zM50 95l170 255l-170 255v-510zM450 95v510l-170 -255zM420 50l-170 255l-170 -255h340z" />
    <glyph glyph-name=".notdef" horiz-adv-x="500" 
d="M0 700h500v-700h-500v700zM420 650h-340l170 -255zM50 95l170 255l-170 255v-510zM450 95v510l-170 -255zM420 50l-170 255l-170 -255h340z" />
    <glyph glyph-name=".null" horiz-adv-x="0" 
 />
    <glyph glyph-name="nonmarkingreturn" horiz-adv-x="333" 
 />
    <glyph glyph-name="NULL" horiz-adv-x="0" 
 />
    <glyph glyph-name="NULL" horiz-adv-x="0" 
 />
    <glyph glyph-name="CR" unicode="&#xd;" horiz-adv-x="295" 
 />
    <glyph glyph-name="space" unicode=" " horiz-adv-x="295" 
 />
    <glyph glyph-name="exclam" unicode="!" horiz-adv-x="277" 
d="M247 699l-99 -514h-59l83 514h75zM57 7q-12 12 -12 31q0 24 18.5 42t42.5 18q19 0 31 -11.5t12 -30.5q0 -24 -18.5 -42.5t-42.5 -18.5q-19 0 -31 12z" />
    <glyph glyph-name="quotedbl" unicode="&#x22;" horiz-adv-x="264" 
d="M197 795l-44 -193h-49l23 193h70zM317 795l-44 -193h-49l23 193h70z" />
    <glyph glyph-name="numbersign" unicode="#" horiz-adv-x="812" 
d="M634 461l-72 -185h143l-11 -62h-156l-84 -214h-67l84 214h-222l-84 -214h-67l84 214h-159l11 62h172l72 185h-157l12 62h169l85 217h67l-85 -217h222l85 217h67l-85 -217h146l-12 -62h-158zM567 461h-222l-72 -185h222z" />
    <glyph glyph-name="dollar" unicode="$" horiz-adv-x="597" 
d="M471 537q1 37 -24 69t-74 40l-47 -267q56 -16 90.5 -31.5t58.5 -45t24 -77.5q0 -21 -4 -41q-8 -47 -38.5 -89.5t-81.5 -70.5t-117 -31l-14 -80h-44l14 81q-80 7 -126.5 50t-46.5 109q0 7 2 25h74q-3 -45 23.5 -81.5t84.5 -44.5l48 276q-57 16 -92 31t-59 45t-24 78
q0 11 4 39q14 80 78.5 131t159.5 55l15 84h44l-15 -85q81 -8 123 -54t38 -115h-74zM172 498q0 -43 28.5 -66t83.5 -41l46 258q-62 -2 -104.5 -34t-51.5 -91q-2 -9 -2 -26zM397.5 274.5q-28.5 23.5 -82.5 41.5l-47 -265q48 3 84 25t55 56.5t19 74.5q0 44 -28.5 67.5z" />
    <glyph glyph-name="percent" unicode="%" horiz-adv-x="632" 
d="M148.5 669q46.5 39 107.5 39q54 0 86 -30.5t32 -81.5q0 -14 -3 -29q-11 -64 -57.5 -103.5t-107.5 -39.5q-54 0 -86 30.5t-32 82.5q0 14 3 30q11 63 57.5 102zM629 700l-534 -700h-70l534 700h70zM182.5 637.5q-27.5 -25.5 -35.5 -70.5q-2 -9 -2 -26q0 -34 18.5 -53
t50.5 -19q37 0 65 26t36 72q2 16 2 24q0 34 -18.5 53t-50.5 19q-38 0 -65.5 -25.5zM342.5 236q46.5 39 107.5 39q53 0 85.5 -30.5t32.5 -82.5q0 -14 -3 -29q-11 -64 -57.5 -103t-107.5 -39q-53 0 -85.5 30.5t-32.5 82.5q0 14 3 29q11 64 57.5 103zM376.5 204.5
q-27.5 -25.5 -35.5 -71.5q-2 -9 -2 -25q0 -34 18 -52.5t50 -18.5q38 0 65.5 25.5t35.5 70.5q2 9 2 25q0 34 -18 53t-50 19q-38 0 -65.5 -25.5z" />
    <glyph glyph-name="ampersand" unicode="&#x26;" horiz-adv-x="727" 
d="M536 147l119 -147h-90l-78 97q-61 -56 -123 -82.5t-134 -26.5q-94 0 -150.5 48.5t-56.5 129.5q0 84 56 149t151 100q-23 31 -34 58.5t-11 55.5q0 52 26 93.5t72.5 64.5t104.5 23q66 0 106.5 -34t40.5 -89q0 -12 -3 -26h-70q1 6 1 17q0 34 -23.5 54t-61.5 20
q-52 0 -87 -32t-35 -79q0 -26 12.5 -52t39.5 -61l189 -233q23 27 49 61l82 106h75l-98 -131q-44 -57 -69 -84zM347.5 72q50.5 23 101.5 72l-183 226q-80 -28 -125.5 -77.5t-45.5 -116.5q0 -56 39.5 -91.5t104.5 -35.5q58 0 108.5 23z" />
    <glyph glyph-name="quotesingle" unicode="'" horiz-adv-x="147" 
d="M200 795l-45 -193h-49l21 193h73z" />
    <glyph glyph-name="parenleft" unicode="(" horiz-adv-x="420" 
d="M127.5 -16.5q-31.5 99.5 -31.5 218.5q0 136 39.5 273.5t113.5 256.5t175 202h73l-1 -7q-101 -85 -176 -200.5t-115 -247.5t-40 -264q0 -114 31.5 -214.5t93.5 -179.5l-1 -7h-73q-57 70 -88.5 169.5z" />
    <glyph glyph-name="parenright" unicode=")" horiz-adv-x="420" 
d="M-30 -186l1 7q149 131 233.5 319t84.5 384q0 117 -33.5 220.5t-100.5 182.5l1 7h74q62 -72 95 -174t33 -224q0 -133 -38 -268.5t-109.5 -253.5t-167.5 -200h-73z" />
    <glyph glyph-name="asterisk" unicode="*" horiz-adv-x="469" 
d="M448 661l20 -50l-153 -64l130 -65l-36 -51l-115 86l-15 -157h-58l38 157l-144 -87l-21 53l153 64l-129 64l37 51l115 -87l17 157h58l-40 -157z" />
    <glyph glyph-name="plus" unicode="+" horiz-adv-x="655" 
d="M593 339h-222l-40 -224h-67l40 224h-221l11 62h220l40 224h67l-40 -224h223z" />
    <glyph glyph-name="comma" unicode="," horiz-adv-x="173" 
d="M114 116l-149 -262h-49l120 262h78z" />
    <glyph glyph-name="hyphen" unicode="-" horiz-adv-x="519" 
d="M440 400l-10 -59h-389l10 59h389z" />
    <glyph glyph-name="period" unicode="." horiz-adv-x="182" 
d="M10 7q-12 12 -12 31q0 24 18.5 42t42.5 18q19 0 31 -11.5t12 -30.5q0 -24 -18.5 -42.5t-42.5 -18.5q-19 0 -31 12z" />
    <glyph glyph-name="slash" unicode="/" horiz-adv-x="441" 
d="M507 940l-471 -1106h-69l469 1106h71z" />
    <glyph glyph-name="zero" unicode="0" horiz-adv-x="616" 
d="M178.5 626q69.5 95 206.5 95q104 0 149.5 -57t45.5 -160q0 -59 -15 -144q-30 -171 -100 -266.5t-207 -95.5q-104 0 -149 56.5t-45 159.5q0 59 15 146q30 171 99.5 266zM511 498q0 76 -31.5 117.5t-105.5 41.5q-72 0 -117 -38.5t-69 -102.5t-40 -156q-16 -91 -16 -141
q0 -75 31 -116t106 -41q72 0 117 38.5t69 102.5t41 157q15 83 15 138z" />
    <glyph glyph-name="one" unicode="1" horiz-adv-x="292" 
d="M94 643l12 64h170l-126 -707h-70l113 643h-99z" />
    <glyph glyph-name="two" unicode="2" horiz-adv-x="572" 
d="M339 301.5q120 109.5 138 212.5q4 26 4 39q0 50 -29.5 80t-95.5 30q-76 0 -126 -47.5t-68 -125.5h-68q25 111 98.5 172t174.5 61q85 0 134.5 -41.5t49.5 -118.5q0 -25 -4 -46q-21 -119 -141 -231.5t-286 -221.5h369l-10 -59h-478l9 50q209 137 329 246.5z" />
    <glyph glyph-name="three" unicode="3" horiz-adv-x="585" 
d="M202.5 677.5q72.5 52.5 173.5 52.5q88 0 135 -41t47 -107q0 -17 -3 -35q-11 -63 -55.5 -109t-114.5 -57l-1 -5q59 -12 92.5 -49.5t33.5 -97.5q0 -11 -4 -39q-16 -86 -83 -140.5t-175 -54.5q-99 0 -155.5 48.5t-56.5 139.5q0 14 1 21h68q-3 -66 36.5 -108t115.5 -42
q77 0 124.5 39.5t58.5 102.5q3 17 3 31q0 121 -196 121h-21l11 59h22q204 0 228 133q2 9 2 26q0 48 -32 75.5t-94 27.5q-67 0 -118 -35.5t-71 -99.5h-68q24 91 96.5 143.5z" />
    <glyph glyph-name="four" unicode="4" horiz-adv-x="613" 
d="M14 170l9 53l451 490h83l-85 -482h107l-11 -61h-107l-30 -170h-69l30 170h-378zM477 636l-371 -405h300z" />
    <glyph glyph-name="five" unicode="5" horiz-adv-x="617" 
d="M583 657h-366l-45 -256q31 35 83 57.5t108 22.5q102 0 148.5 -51t46.5 -130q0 -24 -5 -54q-12 -70 -48 -126.5t-97 -89.5t-142 -33q-102 0 -156.5 53.5t-52.5 144.5h68q2 -66 42.5 -102t109.5 -36q87 0 140.5 51.5t68.5 136.5q4 21 4 44q0 63 -37 97.5t-109 34.5
q-58 0 -106.5 -27t-79.5 -73h-65l70 397h431z" />
    <glyph glyph-name="six" unicode="6" horiz-adv-x="629" 
d="M491.5 638.5q-31.5 33.5 -97.5 33.5q-98 0 -160 -76.5t-89 -248.5q30 60 93 94.5t137 34.5q90 0 140 -48t50 -134q0 -28 -6 -60q-11 -66 -46 -119.5t-93.5 -85.5t-135.5 -32q-115 0 -163.5 57.5t-48.5 163.5q0 64 14 143q65 370 319 370q96 0 141.5 -52.5t41.5 -136.5
h-66q1 63 -30.5 96.5zM258.5 397q-45.5 -19 -79 -57.5t-42.5 -94.5q-4 -20 -4 -43q0 -65 39.5 -105.5t118.5 -40.5q77 0 131.5 47t68.5 128q5 28 5 49q0 65 -37.5 100.5t-107.5 35.5q-47 0 -92.5 -19z" />
    <glyph glyph-name="seven" unicode="7" horiz-adv-x="533" 
d="M561 662l-396 -662h-77l404 657h-400l10 59h468z" />
    <glyph glyph-name="eight" unicode="8" horiz-adv-x="624" 
d="M120 509q0 17 3 35q10 54 45 97t92.5 67.5t131.5 24.5q99 0 151.5 -43t52.5 -112q0 -16 -3 -34q-11 -59 -51.5 -103t-105.5 -64q56 -15 87 -53.5t31 -94.5q0 -17 -3 -37q-18 -98 -97.5 -155.5t-195.5 -57.5q-102 0 -160.5 45.5t-58.5 125.5q0 22 4 42q12 72 59.5 120
t118.5 65q-101 36 -101 132zM253.5 638.5q-51.5 -35.5 -63.5 -102.5q-2 -9 -2 -25q0 -51 39 -80.5t106 -29.5q85 0 139.5 45t54.5 119q0 53 -39 81t-107 28q-76 0 -127.5 -35.5zM182.5 309q-58.5 -38 -72.5 -114q-3 -16 -3 -32q0 -59 43 -92t119 -33q85 0 142.5 42t70.5 115
q3 17 3 31q0 60 -44.5 90.5t-117.5 30.5q-82 0 -140.5 -38z" />
    <glyph glyph-name="nine" unicode="9" horiz-adv-x="625" 
d="M174 91q33 -35 101 -35q94 0 152.5 73.5t84.5 243.5q-29 -55 -88 -86.5t-128 -31.5q-91 0 -143 47.5t-52 135.5q0 22 5 55q12 67 47.5 121t94 85t135.5 31q110 0 157.5 -56t47.5 -162q0 -61 -14 -140q-33 -188 -105 -281.5t-208 -93.5q-99 0 -144.5 53.5t-39.5 140.5h65
q-1 -65 32 -100zM407.5 334.5q43.5 19.5 74 57.5t39.5 91q4 20 4 45q0 65 -37.5 104t-113.5 39q-77 0 -131.5 -48t-68.5 -128q-4 -21 -4 -44q0 -64 37.5 -100t109.5 -36q47 0 90.5 19.5z" />
    <glyph glyph-name="colon" unicode=":" horiz-adv-x="185" 
d="M10 7q-12 12 -12 31q0 24 18.5 42t42.5 18q19 0 31 -11.5t12 -30.5q0 -24 -18.5 -42.5t-42.5 -18.5q-19 0 -31 12zM10 442q-12 12 -12 31q0 24 18.5 42t42.5 18q19 0 31 -11.5t12 -30.5q0 -24 -18.5 -42.5t-42.5 -18.5q-19 0 -31 12z" />
    <glyph glyph-name="semicolon" unicode=";" horiz-adv-x="227" 
d="M109 443q-12 12 -12 31q0 24 18.5 42t42.5 18q19 0 31 -11.5t12 -30.5q0 -24 -18.5 -42.5t-42.5 -18.5q-19 0 -31 12zM138 116l-149 -262h-49l120 262h78z" />
    <glyph glyph-name="less" unicode="&#x3c;" horiz-adv-x="504" 
d="M297 138l-211 232l293 232h88l-293 -232l211 -232h-88z" />
    <glyph glyph-name="equal" unicode="=" horiz-adv-x="676" 
d="M632 503l-11 -62h-510l11 62h510zM595 299l-10 -62h-510l11 62h509z" />
    <glyph glyph-name="greater" unicode="&#x3e;" horiz-adv-x="492" 
d="M135 602h88l210 -232l-292 -232h-88l293 232z" />
    <glyph glyph-name="question" unicode="?" horiz-adv-x="512" 
d="M459.5 664q50.5 -44 50.5 -119q0 -22 -4 -41q-19 -108 -94.5 -158.5t-189.5 -50.5l-23 -110h-60l25 160h25q103 0 168 32.5t82 126.5q3 17 3 30q0 53 -34.5 83.5t-93.5 30.5q-68 0 -115 -37t-59 -101h-66q16 90 85.5 144t164.5 54q85 0 135.5 -44zM104 7q-12 12 -12 31
q0 24 18.5 42t42.5 18q19 0 31 -11.5t12 -30.5q0 -24 -18.5 -42.5t-42.5 -18.5q-19 0 -31 12z" />
    <glyph glyph-name="at" unicode="@" horiz-adv-x="997" 
d="M750.5 594q81.5 -42 125.5 -117.5t44 -173.5q0 -78 -24.5 -149t-71.5 -115.5t-111 -44.5q-49 0 -74 26.5t-27 73.5q-31 -47 -79.5 -73.5t-102.5 -26.5q-76 0 -118.5 46t-42.5 125q0 74 31 138.5t86.5 103.5t125.5 39q50 0 84 -21.5t49 -62.5l13 72h62l-51 -291
q-3 -18 -3 -34q0 -66 58 -66q43 0 74 39t47.5 98.5t16.5 118.5q0 88 -37 152.5t-107 99t-166 34.5q-120 0 -217 -59t-152.5 -160t-55.5 -223q-1 -137 82 -212t228 -75q90 0 165 34l10 -49q-87 -36 -190 -36q-105 0 -185.5 40.5t-124.5 115.5t-44 175q0 139 63.5 253
t176 180.5t252.5 66.5q109 0 190.5 -42zM539.5 76.5q40.5 27.5 64.5 77t24 110.5q0 57 -30 92t-87 35q-52 0 -92.5 -31t-62 -80.5t-21.5 -104.5q0 -58 30 -92t86 -34q48 0 88.5 27.5z" />
    <glyph glyph-name="A" unicode="A" horiz-adv-x="652" 
d="M465 166h-319l-90 -166h-74l377 690h79l132 -690h-74zM454 222l-71 381l-207 -381h278z" />
    <glyph glyph-name="B" unicode="B" horiz-adv-x="597" 
d="M521 417.5q-42 -40.5 -100 -56.5q50 -9 81.5 -48.5t31.5 -94.5q0 -14 -3 -31q-9 -53 -43 -95.5t-89.5 -67t-126.5 -24.5h-242l123 699h236q93 0 140.5 -39t47.5 -103q0 -16 -3 -34q-11 -65 -53 -105.5zM504 542q0 47 -33 74t-98 27h-160l-44 -254h163q70 0 114.5 34
t55.5 93q2 9 2 26zM465 222q0 51 -38 80.5t-105 29.5h-164l-48 -275h167q76 0 125 36.5t60 100.5q3 15 3 28z" />
    <glyph glyph-name="C" unicode="C" horiz-adv-x="771" 
d="M137 534.5q59 81.5 145.5 127t182.5 45.5q116 0 190.5 -55.5t94.5 -156.5h-82q-18 70 -72.5 109.5t-141.5 39.5q-77 0 -144.5 -36t-114.5 -103t-63 -155q-6 -34 -6 -66q0 -69 28 -120.5t79 -79t117 -27.5q87 0 155.5 39t110.5 108h83q-57 -100 -150.5 -155t-209.5 -55
q-85 0 -149.5 35.5t-100.5 99.5t-36 148q0 29 7 73q18 103 77 184.5z" />
    <glyph glyph-name="D" unicode="D" horiz-adv-x="706" 
d="M595 628q82 -71 82 -200q0 -35 -8 -80q-19 -108 -77 -186.5t-148.5 -120t-206.5 -41.5h-207l123 699h208q152 0 234 -71zM483 132.5q90 77.5 114 215.5q7 36 7 72q0 106 -64 164t-190 58h-137l-103 -587h137q146 0 236 77.5z" />
    <glyph glyph-name="E" unicode="E" horiz-adv-x="503" 
d="M213 644l-46 -264h265l-9 -56h-266l-47 -268h295l-10 -56h-365l123 700h366l-11 -56h-295z" />
    <glyph glyph-name="F" unicode="F" horiz-adv-x="493" 
d="M532 699l-10 -56h-309l-46 -264h260l-10 -55h-260l-57 -324h-70l123 699h379z" />
    <glyph glyph-name="G" unicode="G" horiz-adv-x="782" 
d="M138 534.5q60 81.5 147 127t184 45.5q112 0 186 -56t95 -156h-82q-18 69 -73 108.5t-138 39.5q-78 0 -146.5 -36t-115.5 -102.5t-63 -154.5q-6 -34 -6 -66q0 -70 28.5 -121.5t80 -79t119.5 -27.5q73 0 137 31.5t110 90.5t65 137h-294l10 56h368l-9 -51
q-22 -92 -80 -166.5t-141 -117.5t-177 -43q-86 0 -151.5 35.5t-102 100t-36.5 149.5q0 28 7 72q18 103 78 184.5z" />
    <glyph glyph-name="H" unicode="H" horiz-adv-x="679" 
d="M673 699l-124 -699h-70l58 329h-379l-58 -329h-70l123 699h70l-55 -315h379l56 315h70z" />
    <glyph glyph-name="I" unicode="I" horiz-adv-x="229" 
d="M223 699l-123 -699h-70l123 699h70z" />
    <glyph glyph-name="J" unicode="J" horiz-adv-x="499" 
d="M477 699l-93 -529q-14 -80 -72 -128.5t-140 -48.5q-73 0 -114.5 39t-41.5 107q0 24 4 45h71q-3 -18 -3 -34q0 -43 23 -69t72 -26q56 0 89 33t42 82l93 529h70z" />
    <glyph glyph-name="K" unicode="K" horiz-adv-x="568" 
d="M227 350l268 -350h-92l-246 323l-57 -323h-70l123 699h70l-58 -328l362 328h89z" />
    <glyph glyph-name="L" unicode="L" horiz-adv-x="421" 
d="M110 55h251l-10 -55h-321l123 699h70z" />
    <glyph glyph-name="M" unicode="M" horiz-adv-x="842" 
d="M834 690l-122 -690h-70l97 550l-342 -550h-51l-150 549l-96 -549h-70l122 690h74l163 -598l371 598h74z" />
    <glyph glyph-name="N" unicode="N" horiz-adv-x="686" 
d="M557 0h-70l-283 588l-104 -588h-70l123 699h70l284 -587l103 587h70z" />
    <glyph glyph-name="O" unicode="O" horiz-adv-x="788" 
d="M193.5 29q-65.5 36 -101.5 101.5t-36 149.5q0 117 54 215t148 155t209 57q86 0 151.5 -36t101 -101.5t35.5 -150.5q0 -117 -53.5 -214.5t-147.5 -154.5t-209 -57q-86 0 -151.5 36zM524 105q75 49 117 131.5t42 178.5q0 106 -61.5 167t-165.5 61q-94 0 -168.5 -49
t-116.5 -131.5t-42 -177.5q0 -106 61.5 -167.5t164.5 -61.5q94 0 169 49z" />
    <glyph glyph-name="P" unicode="P" horiz-adv-x="564" 
d="M480 353q-69 -55 -187 -55h-141l-52 -298h-70l123 699h211q103 0 154 -43t51 -116q0 -23 -4 -42q-16 -90 -85 -145zM493 498q4 26 4 37q0 108 -143 108h-141l-50 -287h141q164 0 189 142z" />
    <glyph glyph-name="Q" unicode="Q" horiz-adv-x="789" 
d="M692 187.5q-63 -103.5 -169 -154.5l154 -170h-94l-130 144q-53 -14 -108 -14q-86 0 -151.5 36t-101.5 101.5t-36 149.5q0 117 54 215t148 155t209 57q86 0 151.5 -36t101 -101.5t35.5 -150.5q0 -128 -63 -231.5zM190.5 117.5q61.5 -61.5 164.5 -61.5q94 0 169 49
t117 131.5t42 178.5q0 106 -61.5 167t-165.5 61q-94 0 -168.5 -49t-116.5 -131.5t-42 -177.5q0 -106 61.5 -167.5z" />
    <glyph glyph-name="R" unicode="R" horiz-adv-x="587" 
d="M518.5 655q51.5 -44 51.5 -118q0 -13 -4 -41q-13 -76 -66 -129.5t-141 -69.5l127 -297h-84l-121 292h-130l-51 -292h-70l123 699h211q103 0 154.5 -44zM496 532q0 53 -35 82t-108 29h-140l-52 -295h141q83 0 131 40t60 108q3 20 3 36z" />
    <glyph glyph-name="S" unicode="S" horiz-adv-x="566" 
d="M142.5 14q-47.5 21 -73.5 59t-26 87q0 13 1 20h69q-2 -32 11.5 -61.5t47 -49t86.5 -19.5q74 0 118 37t44 100q0 38 -20.5 63.5t-50.5 42t-82 37.5q-61 24 -97 44.5t-59.5 56.5t-19.5 92q2 54 32.5 95.5t83 65t119.5 23.5q66 0 113.5 -22.5t71 -61.5t20.5 -86h-73
q2 27 -12.5 53t-46 42.5t-77.5 16.5q-71 0 -116 -34.5t-45 -93.5q0 -35 20 -59t49 -40t80 -37q59 -24 95.5 -45t62 -56t25.5 -88q0 -13 -1 -20q-4 -51 -34 -93t-82.5 -66t-122.5 -24q-63 0 -110.5 21z" />
    <glyph glyph-name="T" unicode="T" horiz-adv-x="520" 
d="M563 699l-10 -56h-195l-113 -643h-70l113 643h-194l10 56h459z" />
    <glyph glyph-name="U" unicode="U" horiz-adv-x="661" 
d="M221 699l-78 -439q-6 -31 -6 -58q0 -75 41 -110.5t114 -35.5q85 0 142.5 50t76.5 154l78 439h70l-78 -439q-23 -132 -105.5 -199.5t-195.5 -67.5q-97 0 -155 50t-58 149q0 32 6 68l78 439h70z" />
    <glyph glyph-name="V" unicode="V" horiz-adv-x="659" 
d="M174 699l119 -620l339 620h76l-389 -699h-80l-141 699h76z" />
    <glyph glyph-name="W" unicode="W" horiz-adv-x="955" 
d="M1002 699l-322 -699h-78l-70 594l-285 -594l-77 -1l-70 700h76l51 -609l287 609h79l65 -611l268 611h76z" />
    <glyph glyph-name="X" unicode="X" horiz-adv-x="585" 
d="M344 349l150 -349h-79l-126 292l-220 -292h-78l273 351l-150 348h79l125 -290l222 290h79z" />
    <glyph glyph-name="Y" unicode="Y" horiz-adv-x="564" 
d="M616 699l-300 -427l-48 -272h-70l48 272l-150 427h79l117 -363l245 363h79z" />
    <glyph glyph-name="Z" unicode="Z" horiz-adv-x="525" 
d="M86 62h357l-11 -62h-439l10 56l454 581h-346l12 62h428l-10 -56z" />
    <glyph glyph-name="bracketleft" unicode="[" horiz-adv-x="367" 
d="M389 939l-10 -58h-89l-176 -1002h88l-10 -59h-155l197 1119h155z" />
    <glyph glyph-name="backslash" unicode="\" horiz-adv-x="488" 
d="M272 -166l-109 1106h70l108 -1106h-69z" />
    <glyph glyph-name="bracketright" unicode="]" horiz-adv-x="367" 
d="M167 -186h-154l10 59h88l177 1003h-88l10 58h154z" />
    <glyph glyph-name="asciicircum" unicode="^" horiz-adv-x="606" 
d="M90 171h-72l326 519h63l142 -519h-72l-116 431z" />
    <glyph glyph-name="underscore" unicode="_" horiz-adv-x="674" 
d="M538 -35l-11 -65h-508l11 65h508z" />
    <glyph glyph-name="grave" unicode="`" horiz-adv-x="260" 
d="M292 642l-9 -54l-184 119l11 63z" />
    <glyph glyph-name="a" unicode="a" horiz-adv-x="675" 
d="M106 421.5q45 63.5 110.5 98t140.5 34.5q78 0 128 -36t65 -92l21 120h70l-96 -546h-70l21 121q-34 -56 -97.5 -92.5t-141.5 -36.5q-65 0 -114 27t-76 76.5t-27 116.5q0 29 6 62q15 84 60 147.5zM528 323q0 78 -47 124t-122 46q-58 0 -108.5 -26t-85.5 -75.5t-47 -117.5
q-5 -30 -5 -51q0 -79 46.5 -124.5t121.5 -45.5q56 0 107.5 27t87 77t47.5 116q5 28 5 50z" />
    <glyph glyph-name="b" unicode="b" horiz-adv-x="675" 
d="M274 518q63 36 139 36q99 0 158.5 -58.5t59.5 -158.5q0 -30 -6 -63q-15 -84 -60 -148t-110.5 -99t-140.5 -35q-77 0 -127 35.5t-67 92.5l-21 -120h-69l131 740h69l-55 -315q36 57 99 93zM559 325q0 79 -46.5 123.5t-122.5 44.5q-56 0 -107 -27t-87 -77t-48 -116
q-5 -28 -5 -50q0 -78 47 -124t122 -46q58 0 108.5 26.5t86 77t47.5 117.5q5 30 5 51z" />
    <glyph glyph-name="c" unicode="c" horiz-adv-x="613" 
d="M106.5 421.5q45.5 63.5 111.5 98t143 34.5q101 0 157.5 -50t60.5 -136h-75q-3 59 -43.5 92.5t-109.5 33.5q-85 0 -149.5 -57.5t-83.5 -163.5q-5 -25 -5 -57q0 -80 43.5 -122.5t115.5 -42.5q70 0 122 33.5t77 93.5h75q-34 -84 -109 -135t-175 -51q-101 0 -161.5 58
t-60.5 159q0 31 6 64q15 85 60.5 148.5z" />
    <glyph glyph-name="d" unicode="d" horiz-adv-x="675" 
d="M106 421.5q45 63.5 111 98t141 34.5q72 0 123.5 -35t69.5 -91l55 312h70l-131 -740h-70l22 122q-36 -57 -99 -93.5t-140 -36.5q-99 0 -158.5 59.5t-59.5 160.5q0 29 6 62q15 84 60 147.5zM528 323q0 78 -47 124t-122 46q-58 0 -108.5 -26t-85.5 -75.5t-47 -117.5
q-5 -30 -5 -51q0 -79 46.5 -124.5t121.5 -45.5q56 0 107.5 27t87 77t47.5 116q5 28 5 50z" />
    <glyph glyph-name="e" unicode="e" horiz-adv-x="622" 
d="M482 527.5q49 -26.5 74.5 -72.5t25.5 -105q0 -27 -4 -48q-6 -30 -12 -54h-453q-3 -19 -3 -36q0 -77 46.5 -119t118.5 -42q69 0 121 33t76 89h75q-34 -80 -108.5 -130.5t-173.5 -50.5q-102 0 -163.5 58.5t-61.5 159.5q0 30 6 63q15 85 60.5 149t112.5 98t145 34
q69 0 118 -26.5zM511 347q0 71 -45 109t-115 38q-51 0 -98 -22t-82 -66t-48 -106h383q5 28 5 47z" />
    <glyph glyph-name="f" unicode="f" horiz-adv-x="325" 
d="M264 671q-32 -26 -43 -87l-7 -38h128l-11 -59h-127l-86 -487h-70l86 487h-76l11 59h75l7 38q16 89 69 131t155 42l-11 -60q-68 0 -100 -26z" />
    <glyph glyph-name="g" unicode="g" horiz-adv-x="675" 
d="M484.5 518q50.5 -36 65.5 -91l21 119h70l-98 -560q-13 -75 -55.5 -133t-106.5 -89.5t-138 -31.5q-105 0 -165.5 50t-62.5 136h69q8 -57 52 -91t118 -34q81 0 142 51.5t77 141.5l23 135q-34 -56 -97.5 -92.5t-140.5 -36.5q-99 0 -158.5 59.5t-59.5 160.5q0 29 6 62
q15 84 60 147.5t110.5 98t140.5 34.5q77 0 127.5 -36zM528 323q0 78 -47 124t-122 46q-58 0 -108.5 -26t-85.5 -75.5t-47 -117.5q-5 -30 -5 -51q0 -79 46.5 -124.5t121.5 -45.5q56 0 107.5 27t87 77t47.5 116q5 28 5 50z" />
    <glyph glyph-name="h" unicode="h" horiz-adv-x="633" 
d="M520 511q50 -45 50 -133q0 -32 -5 -58l-57 -320h-69l55 312q4 23 4 49q0 66 -36 100t-101 34q-79 0 -135 -50t-73 -147v1l-53 -299h-70l131 740h70l-51 -287q35 50 90 76.5t118 26.5q82 0 132 -45z" />
    <glyph glyph-name="i" unicode="i" horiz-adv-x="229" 
d="M149 660.5q-12 11.5 -12 30.5q0 26 18 43.5t43 17.5q19 0 30.5 -11t11.5 -29q0 -26 -18 -44.5t-42 -18.5q-19 0 -31 11.5zM196 546l-96 -546h-70l96 546h70z" />
    <glyph glyph-name="j" unicode="j" horiz-adv-x="234" 
d="M153.5 660.5q-11.5 11.5 -11.5 30.5q0 26 18 43.5t42 17.5q19 0 31 -11.5t12 -30.5q0 -25 -18.5 -43t-42.5 -18q-19 0 -30.5 11.5zM82 -129q-11 -66 -50 -97.5t-106 -31.5h-48l11 60h37q39 0 59 16.5t27 55.5l119 672h70z" />
    <glyph glyph-name="k" unicode="k" horiz-adv-x="480" 
d="M207 273l213 -273h-95l-182 244l-43 -244h-70l131 740h70l-78 -438l264 244h97z" />
    <glyph glyph-name="l" unicode="l" horiz-adv-x="229" 
d="M231 740l-131 -740h-70l131 740h70z" />
    <glyph glyph-name="m" unicode="m" horiz-adv-x="1022" 
d="M910.5 511q49.5 -45 49.5 -132q0 -27 -6 -59l-57 -320h-69l56 312q5 30 5 50q0 65 -35 99t-99 34q-71 0 -124.5 -45t-74.5 -130l-58 -320h-69l56 312q5 30 5 50q0 65 -35 99t-98 34q-76 0 -131 -49.5t-73 -142.5l-53 -303h-70l96 546h70l-17 -95q34 51 87.5 78t113.5 27
q71 0 118 -34t59 -100q33 65 93 99.5t129 34.5q82 0 131.5 -45z" />
    <glyph glyph-name="n" unicode="n" horiz-adv-x="633" 
d="M519.5 510.5q50.5 -45.5 50.5 -132.5q0 -32 -5 -58l-57 -320h-69l55 312q4 23 4 49q0 66 -36 100t-101 34q-79 0 -135 -50t-73 -147v3l-53 -301h-70l96 546h70l-17 -94q35 50 89 77t117 27q84 0 134.5 -45.5z" />
    <glyph glyph-name="o" unicode="o" horiz-adv-x="642" 
d="M150 19.5q-52 27.5 -80.5 78t-28.5 118.5q0 92 42 169.5t117 123t167 45.5q68 0 120 -27.5t81 -78t29 -118.5q0 -93 -43 -170t-117.5 -122.5t-166.5 -45.5q-68 0 -120 27.5zM405.5 89q56.5 38 88 101t31.5 136q0 82 -47.5 125t-120.5 43q-71 0 -126.5 -38t-86.5 -101
t-31 -136q0 -81 47 -124.5t118 -43.5t127.5 38z" />
    <glyph glyph-name="p" unicode="p" horiz-adv-x="675" 
d="M272.5 517.5q63.5 36.5 140.5 36.5q99 0 158.5 -58.5t59.5 -159.5q0 -29 -6 -62q-15 -84 -60 -148t-110.5 -99t-140.5 -35q-77 0 -127 36.5t-67 91.5l-66 -378h-70l142 804h70l-21 -120q34 55 97.5 91.5zM559 325q0 79 -46.5 123.5t-122.5 44.5q-56 0 -107 -27t-87 -77
t-48 -116q-5 -28 -5 -50q0 -78 47 -124t122 -46q58 0 108.5 26.5t86 77t47.5 117.5q5 30 5 51z" />
    <glyph glyph-name="q" unicode="q" horiz-adv-x="675" 
d="M106 421.5q45 63.5 111 98t141 34.5q77 0 127.5 -36.5t64.5 -91.5l21 120h70l-141 -804h-70l66 378q-33 -54 -97 -91t-143 -37q-64 0 -113 27t-76 76.5t-27 116.5q0 29 6 62q15 84 60 147.5zM528 323q0 78 -47 124t-122 46q-58 0 -108.5 -26t-85.5 -75.5t-47 -117.5
q-5 -30 -5 -51q0 -79 46.5 -124.5t121.5 -45.5q56 0 107.5 27t87 77t47.5 116q5 28 5 50z" />
    <glyph glyph-name="r" unicode="r" horiz-adv-x="362" 
d="M263 525q53 31 123 31l-13 -73h-20q-72 0 -124 -37t-72 -122l-57 -324h-70l96 546h70l-19 -109q33 57 86 88z" />
    <glyph glyph-name="s" unicode="s" horiz-adv-x="510" 
d="M77 30.5q-52 38.5 -52 105.5q0 12 1 18h68q-4 -48 28 -77t94 -29q63 0 101 26.5t38 70.5q0 26 -16 44t-39.5 29.5t-65.5 26.5q-52 19 -83.5 35.5t-54 46t-22.5 74.5t26 80t71.5 54t103.5 19q81 0 132.5 -40t51.5 -106q0 -14 -1 -21h-66q1 4 1 13q0 44 -34.5 71t-88.5 27
t-89.5 -25.5t-35.5 -68.5q0 -29 17 -48.5t42 -31.5t67 -28q50 -19 80.5 -35t51.5 -44t21 -70q0 -71 -59 -113t-153 -42q-83 0 -135 38.5z" />
    <glyph glyph-name="t" unicode="t" horiz-adv-x="356" 
d="M146 148q-3 -18 -3 -31q0 -32 17.5 -44.5t57.5 -12.5h64l-11 -60h-75q-62 0 -93 24t-31 79q0 22 4 45l60 339h-76l11 59h76l24 137h70l-24 -137h151l-11 -59h-151z" />
    <glyph glyph-name="u" unicode="u" horiz-adv-x="633" 
d="M599 546l-96 -546h-70l17 96q-34 -51 -88 -78t-116 -27q-84 0 -135 45.5t-51 132.5q0 32 5 58l56 319h69l-55 -311q-4 -23 -4 -48q0 -66 36.5 -100.5t101.5 -34.5q76 0 131 46.5t74 136.5l55 311h70z" />
    <glyph glyph-name="v" unicode="v" horiz-adv-x="547" 
d="M237 71l267 475h76l-316 -546h-81l-122 546h75z" />
    <glyph glyph-name="w" unicode="w" horiz-adv-x="815" 
d="M846 546l-267 -546h-70l-70 457l-233 -457h-70l-75 546h72l53 -472l235 472h71l67 -473l218 473h69z" />
    <glyph glyph-name="x" unicode="x" horiz-adv-x="460" 
d="M268 276l127 -276h-80l-101 219l-176 -219h-73l224 273l-126 273h80l100 -216l173 216h74z" />
    <glyph glyph-name="y" unicode="y" horiz-adv-x="545" 
d="M139 546l103 -463l261 463h73l-465 -803h-74l152 261l-128 542h78z" />
    <glyph glyph-name="z" unicode="z" horiz-adv-x="441" 
d="M78 58h286l-11 -58h-366l11 58l356 430h-276l11 58h356l-11 -58z" />
    <glyph glyph-name="braceleft" unicode="{" horiz-adv-x="413" 
d="M108 402q60 13 89.5 42.5t37.5 74.5q7 38 11 126q6 98 14 143q12 72 57.5 108.5t112.5 36.5h50l-10 -61h-38q-44 0 -70.5 -21t-34.5 -68q-6 -34 -8.5 -76.5t-3.5 -53.5q-1 -10 -3.5 -55t-9.5 -81q-9 -57 -42 -94t-92 -49l-1 -2q47 -13 67.5 -36t20.5 -63
q0 -26 -10.5 -70.5t-29.5 -111.5q-17 -61 -26 -98.5t-9 -58.5q0 -60 76 -60h38l-11 -61h-50q-58 0 -90.5 27.5t-32.5 82.5q0 27 10.5 69.5t30.5 114.5q17 60 26 97t9 58q0 33 -20 52.5t-67 30.5z" />
    <glyph glyph-name="bar" unicode="|" horiz-adv-x="261" 
d="M98 -100h-70l158 890h70z" />
    <glyph glyph-name="braceright" unicode="}" horiz-adv-x="413" 
d="M213 227q-7 -39 -11 -126q-6 -98 -14 -143q-12 -71 -58 -108t-113 -37h-50l11 61h38q44 0 70.5 21t34.5 68q6 34 8.5 76.5t3.5 53.5q1 10 3.5 55.5t9.5 80.5q9 55 43.5 92.5t93.5 50.5v2q-90 21 -90 110q0 15 3 33q7 36 33 128q28 89 36 138q3 15 3 27q0 62 -76 62h-38
l10 61h50q59 0 91.5 -27.5t32.5 -81.5q0 -16 -3 -36q-8 -47 -36 -139q-26 -87 -34 -130q-3 -13 -3 -26q0 -70 87 -91l-9 -57q-110 -25 -127 -118z" />
    <glyph glyph-name="asciitilde" unicode="~" horiz-adv-x="487" 
d="M94 353.5q38 32.5 88 32.5q26 0 44.5 -9t41.5 -27q20 -15 34.5 -22.5t32.5 -7.5q26 0 47.5 18t31.5 47h53q-22 -64 -60.5 -96.5t-88.5 -32.5q-25 0 -43.5 9t-41.5 27q-22 16 -36 23t-32 7q-25 0 -46.5 -18t-32.5 -47h-53q23 64 61 96.5z" />
    <glyph glyph-name="uni00A0" unicode="&#xa0;" horiz-adv-x="295" 
 />
    <glyph glyph-name="exclamdown" unicode="&#xa1;" horiz-adv-x="312" 
d="M235 549q12 -12 12 -31q0 -24 -18.5 -42t-42.5 -18q-19 0 -31 11.5t-12 30.5q0 24 18.5 42.5t42.5 18.5q19 0 31 -12zM45 -143l99 514h59l-83 -514h-75z" />
    <glyph glyph-name="cent" unicode="&#xa2;" horiz-adv-x="642" 
d="M205 409.5q-61 -51.5 -78 -145.5q-4 -23 -4 -47q0 -72 42.5 -110.5t112.5 -38.5q67 0 116 33t72 91h66q-24 -77 -90 -127t-156 -54l-18 -101h-44l18 101q-89 7 -138 59.5t-49 137.5q0 23 5 56q19 107 92 176.5t179 77.5l17 96h44l-17 -95q88 -5 137 -55.5t45 -126.5h-66
q-2 58 -39.5 91t-104.5 33q-81 0 -142 -51.5z" />
    <glyph glyph-name="sterling" unicode="&#xa3;" horiz-adv-x="596" 
d="M530 668.5q45 -47.5 45 -123.5q0 -9 -2 -31h-65q2 18 2 26q0 53 -32 85t-92 32q-62 0 -108.5 -36.5t-59.5 -110.5q-5 -30 -5 -51q0 -35 12 -95h193l-8 -50h-177q3 -19 3 -39q0 -21 -4 -40q-9 -51 -35 -94t-72 -83h368l-10 -59h-431l-4 42q51 50 79 91t39 101q3 21 3 39
q0 21 -3 42h-115l9 50h97q-11 51 -11 91q0 23 5 58q16 91 83.5 147t161.5 56q89 0 134 -47.5z" />
    <glyph glyph-name="currency" unicode="&#xa4;" horiz-adv-x="526" 
d="M435 486q18 -33 18 -72q0 -11 -4 -37q-10 -63 -52 -108l49 -60l-38 -33l-50 59q-52 -33 -110 -33q-60 0 -98 33l-69 -59l-28 33l70 59q-16 32 -16 70q0 20 4 39q12 66 52 109l-51 61l40 33l50 -61q49 33 108 33t98 -33l71 61l27 -33zM165 344q0 -47 25 -72.5t65 -25.5
q47 0 86.5 35t49.5 96q3 17 3 31q0 47 -26 74t-66 27q-47 0 -85 -35.5t-49 -96.5q-3 -18 -3 -33z" />
    <glyph glyph-name="yen" unicode="&#xa5;" horiz-adv-x="585" 
d="M398 372h147l-9 -52l-175 -1l-33 -47l-8 -47h199l-9 -53h-200l-31 -172h-70l31 172h-200l9 53h201l8 47l-17 47l-175 1l9 52h148l-115 327h78l118 -363l244 363h80z" />
    <glyph glyph-name="brokenbar" unicode="&#xa6;" horiz-adv-x="261" 
d="M186 790h70l-66 -370h-70zM98 -100h-70l66 370h70z" />
    <glyph glyph-name="section" unicode="&#xa7;" horiz-adv-x="572" 
d="M464 557q4 48 -25 81.5t-96 33.5q-59 0 -96.5 -23.5t-45.5 -68.5q-2 -12 -2 -18q0 -33 32 -56t112 -49q89 -28 134.5 -63t45.5 -94q0 -13 -3 -30q-10 -58 -58.5 -103t-125.5 -61q48 -20 76 -47t28 -68q0 -47 -28 -86.5t-78.5 -63t-115.5 -23.5q-85 0 -134.5 38t-49.5 107
q0 14 1 21h70q-4 -50 25 -82.5t98 -32.5q57 0 94 23.5t45 69.5q2 12 2 18q0 33 -32 55.5t-112 47.5q-89 28 -135 63.5t-46 94.5q0 44 23 84.5t66 69.5t101 40q-49 20 -77.5 47.5t-28.5 69.5q0 46 28 85t79 62t117 23q85 0 134 -38t49 -107q0 -13 -1 -20h-70zM411 366
q-39 28 -107 28q-55 0 -98 -20t-66 -53t-23 -70q0 -47 39 -76t108 -29q56 0 98.5 20.5t65 54t22.5 71.5q0 46 -39 74z" />
    <glyph glyph-name="dieresis" unicode="&#xa8;" horiz-adv-x="315" 
d="M113.5 634q-10.5 11 -10.5 27q0 22 16 38t38 16q17 0 27.5 -10.5t10.5 -27.5q0 -22 -16.5 -38t-37.5 -16q-17 0 -27.5 11zM267.5 634q-10.5 11 -10.5 27q0 22 16.5 38t38.5 16q16 0 26.5 -10.5t10.5 -26.5q0 -22 -16.5 -38.5t-37.5 -16.5q-17 0 -27.5 11z" />
    <glyph glyph-name="copyright" unicode="&#xa9;" horiz-adv-x="796" 
d="M625.5 668.5q65.5 -34.5 101 -97.5t35.5 -146q0 -39 -7 -75q-18 -103 -76 -183.5t-144 -125.5t-187 -45q-89 0 -154.5 35t-101 98.5t-35.5 147.5q0 29 7 73q18 103 76 183t144.5 125t187.5 45q88 0 153.5 -34.5zM295.5 630.5q-77.5 -40.5 -128 -113.5t-67.5 -167
q-6 -37 -6 -71q0 -114 68.5 -182t191.5 -68q93 0 170 40.5t128 113.5t67 167q6 38 6 71q0 114 -68 182t-190 68q-94 0 -171.5 -40.5zM337 556q-54 -28 -92 -81t-51 -124q-5 -32 -5 -53q0 -85 50 -133t129 -48q74 0 137 40.5t94 109.5h-65q-24 -48 -64.5 -73t-91.5 -25
q-56 0 -90.5 35t-34.5 100q0 23 4 46q15 86 67 133.5t118 47.5q50 0 82.5 -25.5t38.5 -72.5h65q-6 71 -54 111t-123 40q-60 0 -114 -28z" />
    <glyph glyph-name="ordfeminine" unicode="&#xaa;" horiz-adv-x="445" 
d="M116.5 623q28.5 41 70 63.5t88.5 22.5q51 0 82.5 -23.5t39.5 -63.5l14 81h57l-61 -350h-57l14 81q-23 -40 -62 -63.5t-90 -23.5q-62 0 -99.5 39.5t-37.5 103.5q0 11 4 39q9 53 37.5 94zM383 559q0 49 -28 77t-74 28q-51 0 -92 -36.5t-52 -98.5q-3 -16 -3 -32
q0 -49 27.5 -77t71.5 -28q54 0 95.5 37t51.5 99q3 17 3 31z" />
    <glyph glyph-name="guillemotleft" unicode="&#xab;" horiz-adv-x="435" 
d="M115 120l-68 175l130 175h71l-133 -175l72 -175h-72zM285 120l-68 175l130 175h71l-133 -175l72 -175h-72z" />
    <glyph glyph-name="logicalnot" unicode="&#xac;" horiz-adv-x="729" 
d="M705 430l-35 -200h-69l25 143h-561l10 57h630z" />
    <glyph glyph-name="uni00AD" unicode="&#xad;" horiz-adv-x="519" 
d="M440 400l-10 -59h-389l10 59h389z" />
    <glyph glyph-name="registered" unicode="&#xae;" horiz-adv-x="502" 
d="M449 663q45 -45 45 -116q0 -12 -4 -40q-10 -57 -43.5 -102.5t-83 -71.5t-106.5 -26q-76 0 -121 44t-45 115q0 22 4 41q10 57 43.5 103t83 72t106.5 26q76 0 121 -45zM458 542q0 60 -36 96t-100 36q-73 0 -125.5 -46.5t-65.5 -120.5q-3 -18 -3 -36q0 -59 36 -95t99 -36
q73 0 126 47t66 120q3 18 3 35zM372.5 602q16.5 -14 16.5 -38q0 -30 -18 -50.5t-46 -25.5l43 -86l-50 -1l-39 85h-24l-15 -85h-43l38 215h92q29 0 45.5 -14zM338.5 569.5q-7.5 6.5 -21.5 6.5h-46l-10 -53h46q31 0 37 27q2 13 -5.5 19.5z" />
    <glyph glyph-name="macron" unicode="&#xaf;" horiz-adv-x="387" 
d="M437 700l-9 -54h-340l10 54h339z" />
    <glyph glyph-name="degree" unicode="&#xb0;" horiz-adv-x="394" 
d="M140.5 649q55.5 48 129.5 48q65 0 103 -37t38 -99q0 -13 -4 -39q-13 -78 -69 -126.5t-131 -48.5q-64 0 -101.5 37t-37.5 100q0 19 3 38q14 79 69.5 127zM352 556q0 47 -24.5 72.5t-65.5 25.5q-49 0 -86 -35t-47 -97q-3 -19 -3 -35q0 -46 24 -71t65 -25q49 0 86.5 34.5
t47.5 96.5q3 18 3 34z" />
    <glyph glyph-name="plusminus" unicode="&#xb1;" horiz-adv-x="657" 
d="M379 379l-37 -208h222l-12 -62h-509l12 62h220l36 208h-220l11 63h220l33 186h68l-33 -186h221l-11 -63h-221z" />
    <glyph glyph-name="twosuperior" unicode="&#xb2;" horiz-adv-x="322" 
d="M296.5 532q-27.5 -31 -82.5 -69l-93 -64h180l-8 -47h-247l7 40l128 95q46 34 69 62.5t23 67.5q0 23 -13.5 35.5t-36.5 12.5q-28 0 -48 -16.5t-28 -46.5h-58q11 47 48.5 77t94.5 30q47 0 74 -24t27 -62q0 -6 -2 -20q-7 -40 -34.5 -71z" />
    <glyph glyph-name="threesuperior" unicode="&#xb3;" horiz-adv-x="323" 
d="M141 682.5q39 26.5 95 26.5q48 0 77.5 -23.5t29.5 -61.5q0 -36 -21.5 -61.5t-56.5 -34.5l-1 -2q24 -8 38.5 -25t14.5 -42q0 -29 -18.5 -54.5t-52.5 -41.5t-77 -16q-57 0 -86 27t-25 77h56q-1 -60 62 -60q36 0 58.5 19t22.5 51q0 22 -17 34.5t-46 12.5h-48l7 39h48
q31 0 53 15.5t27 43.5q1 4 1 12q0 21 -15 33.5t-42 12.5q-59 0 -81 -50h-54q12 42 51 68.5z" />
    <glyph glyph-name="acute" unicode="&#xb4;" horiz-adv-x="253" 
d="M304 707l-226 -119l9 54l228 128z" />
    <glyph glyph-name="uni00B5" unicode="&#xb5;" horiz-adv-x="638" 
d="M604 546l-96 -546h-70l20 112q-34 -60 -90 -91t-119 -31q-50 0 -86.5 22t-49.5 70l-60 -340h-69l142 804h69l-52 -294q-5 -25 -5 -56q0 -72 37.5 -108.5t103.5 -36.5q74 0 127 46t73 135l55 314h70z" />
    <glyph glyph-name="paragraph" unicode="&#xb6;" horiz-adv-x="564" 
d="M434 0h-63l112 634h-86l-112 -634h-63l51 289h-8q-102 0 -153.5 43t-51.5 116q0 13 4 41q16 90 86 145.5t186 55.5h220z" />
    <glyph glyph-name="periodcentered" unicode="&#xb7;" horiz-adv-x="183" 
d="M12 307q-12 12 -12 31q0 24 18.5 42t42.5 18q19 0 31 -11.5t12 -30.5q0 -24 -18.5 -42.5t-42.5 -18.5q-19 0 -31 12z" />
    <glyph glyph-name="cedilla" unicode="&#xb8;" horiz-adv-x="265" 
d="M135 -85q30 -20 30 -57q0 -6 -2 -18q-8 -45 -44.5 -71.5t-89.5 -26.5h-100l8 47h86q73 0 80 51q1 4 1 11q0 37 -63 37h-47l21 119h50l-14 -74q54 2 84 -18z" />
    <glyph glyph-name="onesuperior" unicode="&#xb9;" horiz-adv-x="183" 
d="M95 659l9 45h110l-62 -352h-57l54 307h-54z" />
    <glyph glyph-name="ordmasculine" unicode="&#xba;" horiz-adv-x="429" 
d="M152 659q59 50 136 50q69 0 111 -39.5t42 -105.5q0 -17 -3 -37q-9 -53 -40 -94.5t-75.5 -64.5t-95.5 -23q-68 0 -110 39.5t-42 105.5q0 18 3 37q15 82 74 132zM382 561q0 49 -28.5 76.5t-72.5 27.5q-52 0 -92.5 -36.5t-52.5 -101.5q-3 -16 -3 -32q0 -50 28 -77.5
t73 -27.5q52 0 93 36t52 101q3 18 3 34z" />
    <glyph glyph-name="guillemotright" unicode="&#xbb;" horiz-adv-x="435" 
d="M154 295l-71 175h71l68 -175l-130 -175h-71zM324 295l-71 175h71l68 -175l-130 -175h-71z" />
    <glyph glyph-name="onequarter" unicode="&#xbc;" horiz-adv-x="602" 
d="M112 659l9 45h110l-62 -352h-57l54 307h-54zM567 700l-490 -700h-67l491 700h66zM526 71h-50l-13 -71h-57l13 71h-179l6 35l207 248h73l-43 -244h49zM460 296l-155 -186h122z" />
    <glyph glyph-name="onehalf" unicode="&#xbd;" horiz-adv-x="650" 
d="M113 352l54 307h-54l9 45h110l-62 -352h-57zM553 700l-484 -700h-67l484 700h67zM624.5 179q-27.5 -31 -82.5 -69l-93 -64h180l-8 -47h-247l7 40l128 95q46 34 69 62.5t23 67.5q0 23 -13.5 35.5t-36.5 12.5q-28 0 -48 -16.5t-28 -46.5h-58q11 47 48.5 77t94.5 30
q47 0 74 -24t27 -62q0 -6 -2 -20q-7 -40 -34.5 -71z" />
    <glyph glyph-name="threequarters" unicode="&#xbe;" horiz-adv-x="644" 
d="M157 682.5q39 26.5 95 26.5q48 0 77.5 -23.5t29.5 -61.5q0 -36 -21.5 -61.5t-56.5 -34.5l-1 -2q24 -8 38.5 -25t14.5 -42q0 -29 -18.5 -54.5t-52.5 -41.5t-77 -16q-57 0 -86 27t-25 77h56q-1 -60 62 -60q36 0 58.5 19t22.5 51q0 22 -17 34.5t-46 12.5h-48l7 39h48
q31 0 53 15.5t27 43.5q1 4 1 12q0 21 -15 33.5t-42 12.5q-59 0 -81 -50h-54q12 42 51 68.5zM641 700l-501 -700h-66l501 700h66zM574 71h-50l-13 -71h-56l13 71h-180l6 35l207 248h73l-43 -244h50zM509 296l-156 -186h122z" />
    <glyph glyph-name="questiondown" unicode="&#xbf;" horiz-adv-x="502" 
d="M403 539q12 -12 12 -31q0 -24 -18.5 -42t-42.5 -18q-19 0 -31 11.5t-12 30.5q0 24 18.5 42.5t42.5 18.5q19 0 31 -12zM47.5 -118q-50.5 44 -50.5 119q0 22 4 41q19 108 94.5 158.5t189.5 50.5l23 110h60l-25 -160h-25q-103 0 -168 -32.5t-82 -126.5q-3 -16 -3 -30
q0 -53 34.5 -83.5t93.5 -30.5q68 0 115 37t59 101h66q-16 -90 -85.5 -144t-164.5 -54q-85 0 -135.5 44z" />
    <glyph glyph-name="Agrave" unicode="&#xc0;" horiz-adv-x="652" 
d="M465 166h-319l-90 -166h-74l377 690h79l132 -690h-74zM454 222l-71 381l-207 -381h278zM507 786l-9 -54l-184 119l11 63z" />
    <glyph glyph-name="Aacute" unicode="&#xc1;" horiz-adv-x="652" 
d="M465 166h-319l-90 -166h-74l377 690h79l132 -690h-74zM454 222l-71 381l-207 -381h278zM519 851l-226 -119l9 54l228 128z" />
    <glyph glyph-name="Acircumflex" unicode="&#xc2;" horiz-adv-x="652" 
d="M465 166h-319l-90 -166h-74l377 690h79l132 -690h-74zM454 222l-71 381l-207 -381h278zM424 835l-149 -84l10 57l149 82l119 -82l-10 -57z" />
    <glyph glyph-name="Atilde" unicode="&#xc3;" horiz-adv-x="652" 
d="M465 166h-319l-90 -166h-74l377 690h79l132 -690h-74zM454 222l-71 381l-207 -381h278zM318.5 819q27.5 24 63.5 24q18 0 29.5 -6t27.5 -19q13 -11 23 -16.5t24 -5.5q17 0 31 11.5t20 33.5h43q-13 -44 -41.5 -68.5t-64.5 -24.5q-19 0 -31.5 6.5t-27.5 19.5
q-12 10 -22 15.5t-23 5.5q-37 0 -50 -45h-43q14 45 41.5 69z" />
    <glyph glyph-name="Adieresis" unicode="&#xc4;" horiz-adv-x="652" 
d="M465 166h-319l-90 -166h-74l377 690h79l132 -690h-74zM454 222l-71 381l-207 -381h278zM308.5 778q-10.5 11 -10.5 27q0 22 16 38t38 16q17 0 27.5 -10.5t10.5 -27.5q0 -22 -16.5 -38t-37.5 -16q-17 0 -27.5 11zM462.5 778q-10.5 11 -10.5 27q0 22 16.5 38t38.5 16
q16 0 26.5 -10.5t10.5 -26.5q0 -22 -16.5 -38.5t-37.5 -16.5q-17 0 -27.5 11z" />
    <glyph glyph-name="Aring" unicode="&#xc5;" horiz-adv-x="652" 
d="M465 166h-319l-90 -166h-74l377 690h79l132 -690h-74zM454 222l-71 381l-207 -381h278zM370 926.5q34 27.5 76 27.5q37 0 60.5 -21.5t23.5 -57.5t-17 -63.5t-44.5 -42.5t-58.5 -15q-37 0 -61 21.5t-24 58.5q0 6 2 20q9 45 43 72.5zM475 902q-14 13 -37 13
q-26 0 -45.5 -16.5t-24.5 -44.5q-1 -5 -1 -13q0 -22 13.5 -35t36.5 -13q29 0 50.5 21t21.5 53q0 22 -14 35z" />
    <glyph glyph-name="AE" unicode="&#xc6;" horiz-adv-x="882" 
d="M592 644l-47 -264h265l-9 -56h-265l-47 -268h294l-10 -56h-365l30 166h-274l-126 -166h-77l530 700h406l-10 -56h-295zM522 640l-316 -418h242z" />
    <glyph glyph-name="Ccedilla" unicode="&#xc7;" horiz-adv-x="771" 
d="M505.5 96q68.5 39 110.5 108h83q-52 -92 -136 -146.5t-188 -62.5l-12 -62q54 2 84 -18t30 -57q0 -6 -2 -18q-8 -45 -44.5 -71.5t-89.5 -26.5h-100l8 47h86q73 0 80 51q1 4 1 11q0 37 -63 37h-47l19 106q-81 3 -142.5 39t-95.5 99t-34 145q0 29 7 73q18 103 77 184.5
t145.5 127t182.5 45.5q116 0 190.5 -55.5t94.5 -156.5h-82q-18 70 -72.5 109.5t-141.5 39.5q-77 0 -144.5 -36t-114.5 -103t-63 -155q-6 -34 -6 -66q0 -69 28 -120.5t79 -79t117 -27.5q87 0 155.5 39z" />
    <glyph glyph-name="Egrave" unicode="&#xc8;" horiz-adv-x="503" 
d="M213 644l-46 -264h265l-9 -56h-266l-47 -268h295l-10 -56h-365l123 700h366l-11 -56h-295zM429 786l-9 -54l-184 119l11 63z" />
    <glyph glyph-name="Eacute" unicode="&#xc9;" horiz-adv-x="503" 
d="M213 644l-46 -264h265l-9 -56h-266l-47 -268h295l-10 -56h-365l123 700h366l-11 -56h-295zM441 851l-226 -119l9 54l228 128z" />
    <glyph glyph-name="Ecircumflex" unicode="&#xca;" horiz-adv-x="503" 
d="M213 644l-46 -264h265l-9 -56h-266l-47 -268h295l-10 -56h-365l123 700h366l-11 -56h-295zM346 835l-149 -84l10 57l149 82l119 -82l-10 -57z" />
    <glyph glyph-name="Edieresis" unicode="&#xcb;" horiz-adv-x="503" 
d="M213 644l-46 -264h265l-9 -56h-266l-47 -268h295l-10 -56h-365l123 700h366l-11 -56h-295zM230.5 778q-10.5 11 -10.5 27q0 22 16 38t38 16q17 0 27.5 -10.5t10.5 -27.5q0 -22 -16.5 -38t-37.5 -16q-17 0 -27.5 11zM384.5 778q-10.5 11 -10.5 27q0 22 16.5 38t38.5 16
q16 0 26.5 -10.5t10.5 -26.5q0 -22 -16.5 -38.5t-37.5 -16.5q-17 0 -27.5 11z" />
    <glyph glyph-name="Igrave" unicode="&#xcc;" horiz-adv-x="229" 
d="M223 699l-123 -699h-70l123 699h70zM295 786l-9 -54l-184 119l11 63z" />
    <glyph glyph-name="Iacute" unicode="&#xcd;" horiz-adv-x="229" 
d="M223 699l-123 -699h-70l123 699h70zM307 851l-226 -119l9 54l228 128z" />
    <glyph glyph-name="Icircumflex" unicode="&#xce;" horiz-adv-x="229" 
d="M223 699l-123 -699h-70l123 699h70zM212 835l-149 -84l10 57l149 82l119 -82l-10 -57z" />
    <glyph glyph-name="Idieresis" unicode="&#xcf;" horiz-adv-x="229" 
d="M223 699l-123 -699h-70l123 699h70zM96.5 778q-10.5 11 -10.5 27q0 22 16 38t38 16q17 0 27.5 -10.5t10.5 -27.5q0 -22 -16.5 -38t-37.5 -16q-17 0 -27.5 11zM250.5 778q-10.5 11 -10.5 27q0 22 16.5 38t38.5 16q16 0 26.5 -10.5t10.5 -26.5q0 -22 -16.5 -38.5
t-37.5 -16.5q-17 0 -27.5 11z" />
    <glyph glyph-name="Eth" unicode="&#xd0;" horiz-adv-x="730" 
d="M619 628q82 -71 82 -199q0 -36 -8 -81q-19 -108 -76.5 -186.5t-148 -120t-206.5 -41.5h-208l56 316h-94l11 65h95l56 318h208q151 0 233 -71zM629 421q0 105 -64 163t-189 58h-138l-46 -261h204l-11 -65h-204l-46 -261h137q146 0 236 77.5t114 215.5q7 36 7 73z" />
    <glyph glyph-name="Ntilde" unicode="&#xd1;" horiz-adv-x="686" 
d="M557 0h-70l-283 588l-104 -588h-70l123 699h70l284 -587l103 587h70zM336.5 819q27.5 24 63.5 24q18 0 29.5 -6t27.5 -19q13 -11 23 -16.5t24 -5.5q17 0 31 11.5t20 33.5h43q-13 -44 -41.5 -68.5t-64.5 -24.5q-19 0 -31.5 6.5t-27.5 19.5q-12 10 -22 15.5t-23 5.5
q-37 0 -50 -45h-43q14 45 41.5 69z" />
    <glyph glyph-name="Ograve" unicode="&#xd2;" horiz-adv-x="788" 
d="M193.5 29q-65.5 36 -101.5 101.5t-36 149.5q0 117 54 215t148 155t209 57q86 0 151.5 -36t101 -101.5t35.5 -150.5q0 -117 -53.5 -214.5t-147.5 -154.5t-209 -57q-86 0 -151.5 36zM524 105q75 49 117 131.5t42 178.5q0 106 -61.5 167t-165.5 61q-94 0 -168.5 -49
t-116.5 -131.5t-42 -177.5q0 -106 61.5 -167.5t164.5 -61.5q94 0 169 49zM578 790l-9 -54l-184 119l11 63z" />
    <glyph glyph-name="Oacute" unicode="&#xd3;" horiz-adv-x="788" 
d="M193.5 29q-65.5 36 -101.5 101.5t-36 149.5q0 117 54 215t148 155t209 57q86 0 151.5 -36t101 -101.5t35.5 -150.5q0 -117 -53.5 -214.5t-147.5 -154.5t-209 -57q-86 0 -151.5 36zM524 105q75 49 117 131.5t42 178.5q0 106 -61.5 167t-165.5 61q-94 0 -168.5 -49
t-116.5 -131.5t-42 -177.5q0 -106 61.5 -167.5t164.5 -61.5q94 0 169 49zM590 855l-226 -119l9 54l228 128z" />
    <glyph glyph-name="Ocircumflex" unicode="&#xd4;" horiz-adv-x="788" 
d="M193.5 29q-65.5 36 -101.5 101.5t-36 149.5q0 117 54 215t148 155t209 57q86 0 151.5 -36t101 -101.5t35.5 -150.5q0 -117 -53.5 -214.5t-147.5 -154.5t-209 -57q-86 0 -151.5 36zM524 105q75 49 117 131.5t42 178.5q0 106 -61.5 167t-165.5 61q-94 0 -168.5 -49
t-116.5 -131.5t-42 -177.5q0 -106 61.5 -167.5t164.5 -61.5q94 0 169 49zM495 839l-149 -84l10 57l149 82l119 -82l-10 -57z" />
    <glyph glyph-name="Otilde" unicode="&#xd5;" horiz-adv-x="788" 
d="M193.5 29q-65.5 36 -101.5 101.5t-36 149.5q0 117 54 215t148 155t209 57q86 0 151.5 -36t101 -101.5t35.5 -150.5q0 -117 -53.5 -214.5t-147.5 -154.5t-209 -57q-86 0 -151.5 36zM524 105q75 49 117 131.5t42 178.5q0 106 -61.5 167t-165.5 61q-94 0 -168.5 -49
t-116.5 -131.5t-42 -177.5q0 -106 61.5 -167.5t164.5 -61.5q94 0 169 49zM389.5 823q27.5 24 63.5 24q18 0 29.5 -6t27.5 -19q13 -11 23 -16.5t24 -5.5q17 0 31 11.5t20 33.5h43q-13 -44 -41.5 -68.5t-64.5 -24.5q-19 0 -31.5 6.5t-27.5 19.5q-12 10 -22 15.5t-23 5.5
q-37 0 -50 -45h-43q14 45 41.5 69z" />
    <glyph glyph-name="Odieresis" unicode="&#xd6;" horiz-adv-x="788" 
d="M193.5 29q-65.5 36 -101.5 101.5t-36 149.5q0 117 54 215t148 155t209 57q86 0 151.5 -36t101 -101.5t35.5 -150.5q0 -117 -53.5 -214.5t-147.5 -154.5t-209 -57q-86 0 -151.5 36zM524 105q75 49 117 131.5t42 178.5q0 106 -61.5 167t-165.5 61q-94 0 -168.5 -49
t-116.5 -131.5t-42 -177.5q0 -106 61.5 -167.5t164.5 -61.5q94 0 169 49zM379.5 782q-10.5 11 -10.5 27q0 22 16 38t38 16q17 0 27.5 -10.5t10.5 -27.5q0 -22 -16.5 -38t-37.5 -16q-17 0 -27.5 11zM533.5 782q-10.5 11 -10.5 27q0 22 16.5 38t38.5 16q16 0 26.5 -10.5
t10.5 -26.5q0 -22 -16.5 -38.5t-37.5 -16.5q-17 0 -27.5 11z" />
    <glyph glyph-name="multiply" unicode="&#xd7;" horiz-adv-x="591" 
d="M357 371l136 -166l-53 -45l-136 165l-195 -165l-38 46l195 166l-135 164l54 45l135 -164l192 163l38 -46z" />
    <glyph glyph-name="Oslash" unicode="&#xd8;" horiz-adv-x="788" 
d="M704 595q51 -73 51 -176q0 -117 -53.5 -214.5t-147.5 -154.5t-209 -57q-65 0 -119 21t-93 60l-81 -74h-60l116 105q-52 72 -52 175q0 117 54 215t148 155t209 57q65 0 119 -21.5t92 -60.5l82 75h59zM162 155l464 422q-30 32 -73.5 49t-96.5 17q-94 0 -168.5 -49
t-116.5 -131.5t-42 -177.5q0 -75 33 -130zM650 546l-464 -424q30 -32 73 -49t96 -17q94 0 169 49t117 131.5t42 178.5q0 74 -33 131z" />
    <glyph glyph-name="Ugrave" unicode="&#xd9;" horiz-adv-x="661" 
d="M221 699l-78 -439q-6 -31 -6 -58q0 -75 41 -110.5t114 -35.5q85 0 142.5 50t76.5 154l78 439h70l-78 -439q-23 -132 -105.5 -199.5t-195.5 -67.5q-97 0 -155 50t-58 149q0 32 6 68l78 439h70zM511 786l-9 -54l-184 119l11 63z" />
    <glyph glyph-name="Uacute" unicode="&#xda;" horiz-adv-x="661" 
d="M221 699l-78 -439q-6 -31 -6 -58q0 -75 41 -110.5t114 -35.5q85 0 142.5 50t76.5 154l78 439h70l-78 -439q-23 -132 -105.5 -199.5t-195.5 -67.5q-97 0 -155 50t-58 149q0 32 6 68l78 439h70zM523 851l-226 -119l9 54l228 128z" />
    <glyph glyph-name="Ucircumflex" unicode="&#xdb;" horiz-adv-x="661" 
d="M221 699l-78 -439q-6 -31 -6 -58q0 -75 41 -110.5t114 -35.5q85 0 142.5 50t76.5 154l78 439h70l-78 -439q-23 -132 -105.5 -199.5t-195.5 -67.5q-97 0 -155 50t-58 149q0 32 6 68l78 439h70zM428 835l-149 -84l10 57l149 82l119 -82l-10 -57z" />
    <glyph glyph-name="Udieresis" unicode="&#xdc;" horiz-adv-x="661" 
d="M221 699l-78 -439q-6 -31 -6 -58q0 -75 41 -110.5t114 -35.5q85 0 142.5 50t76.5 154l78 439h70l-78 -439q-23 -132 -105.5 -199.5t-195.5 -67.5q-97 0 -155 50t-58 149q0 32 6 68l78 439h70zM312.5 778q-10.5 11 -10.5 27q0 22 16 38t38 16q17 0 27.5 -10.5t10.5 -27.5
q0 -22 -16.5 -38t-37.5 -16q-17 0 -27.5 11zM466.5 778q-10.5 11 -10.5 27q0 22 16.5 38t38.5 16q16 0 26.5 -10.5t10.5 -26.5q0 -22 -16.5 -38.5t-37.5 -16.5q-17 0 -27.5 11z" />
    <glyph glyph-name="Yacute" unicode="&#xdd;" horiz-adv-x="564" 
d="M616 699l-300 -427l-48 -272h-70l48 272l-150 427h79l117 -363l245 363h79zM476 851l-226 -119l9 54l228 128z" />
    <glyph glyph-name="Thorn" unicode="&#xde;" horiz-adv-x="564" 
d="M454.5 205q-68.5 -55 -187.5 -55h-141l-26 -150h-70l123 700h70l-26 -149h141q103 0 154 -43t51 -116q0 -23 -4 -42q-16 -90 -84.5 -145zM408.5 244.5q46.5 37.5 58.5 105.5q4 26 4 37q0 107 -143 107h-141l-51 -287h141q85 0 131.5 37.5z" />
    <glyph glyph-name="germandbls" unicode="&#xdf;" horiz-adv-x="638" 
d="M200 710.5q67 57.5 176 57.5q88 0 135.5 -37.5t47.5 -97.5q0 -39 -17 -70t-40.5 -53t-60.5 -50q-36 -28 -53.5 -46.5t-17.5 -38.5q0 -21 21.5 -36.5t82.5 -36.5q58 -20 84 -51.5t26 -80.5q0 -51 -27 -92t-74.5 -64.5t-106.5 -23.5q-78 0 -124 42.5t-46 113.5q0 14 1 21
h72q-1 -6 -1 -18q0 -48 28 -75t79 -27q56 0 91 32t35 83q0 30 -20.5 50t-67.5 37q-68 24 -97 48.5t-29 63.5q0 38 24 66.5t72 66.5q47 36 71 64.5t24 65.5q0 39 -32.5 62t-90.5 23q-77 0 -121.5 -41t-57.5 -116l-97 -552h-70l98 560q16 93 83 150.5z" />
    <glyph glyph-name="agrave" unicode="&#xe0;" horiz-adv-x="675" 
d="M106 421.5q45 63.5 110.5 98t140.5 34.5q78 0 128 -36t65 -92l21 120h70l-96 -546h-70l21 121q-34 -56 -97.5 -92.5t-141.5 -36.5q-65 0 -114 27t-76 76.5t-27 116.5q0 29 6 62q15 84 60 147.5zM528 323q0 78 -47 124t-122 46q-58 0 -108.5 -26t-85.5 -75.5t-47 -117.5
q-5 -30 -5 -51q0 -79 46.5 -124.5t121.5 -45.5q56 0 107.5 27t87 77t47.5 116q5 28 5 50zM494 642l-9 -54l-184 119l11 63z" />
    <glyph glyph-name="aacute" unicode="&#xe1;" horiz-adv-x="675" 
d="M106 421.5q45 63.5 110.5 98t140.5 34.5q78 0 128 -36t65 -92l21 120h70l-96 -546h-70l21 121q-34 -56 -97.5 -92.5t-141.5 -36.5q-65 0 -114 27t-76 76.5t-27 116.5q0 29 6 62q15 84 60 147.5zM528 323q0 78 -47 124t-122 46q-58 0 -108.5 -26t-85.5 -75.5t-47 -117.5
q-5 -30 -5 -51q0 -79 46.5 -124.5t121.5 -45.5q56 0 107.5 27t87 77t47.5 116q5 28 5 50zM506 707l-226 -119l9 54l228 128z" />
    <glyph glyph-name="acircumflex" unicode="&#xe2;" horiz-adv-x="675" 
d="M106 421.5q45 63.5 110.5 98t140.5 34.5q78 0 128 -36t65 -92l21 120h70l-96 -546h-70l21 121q-34 -56 -97.5 -92.5t-141.5 -36.5q-65 0 -114 27t-76 76.5t-27 116.5q0 29 6 62q15 84 60 147.5zM528 323q0 78 -47 124t-122 46q-58 0 -108.5 -26t-85.5 -75.5t-47 -117.5
q-5 -30 -5 -51q0 -79 46.5 -124.5t121.5 -45.5q56 0 107.5 27t87 77t47.5 116q5 28 5 50zM411 691l-149 -84l10 57l149 82l119 -82l-10 -57z" />
    <glyph glyph-name="atilde" unicode="&#xe3;" horiz-adv-x="675" 
d="M106 421.5q45 63.5 110.5 98t140.5 34.5q78 0 128 -36t65 -92l21 120h70l-96 -546h-70l21 121q-34 -56 -97.5 -92.5t-141.5 -36.5q-65 0 -114 27t-76 76.5t-27 116.5q0 29 6 62q15 84 60 147.5zM528 323q0 78 -47 124t-122 46q-58 0 -108.5 -26t-85.5 -75.5t-47 -117.5
q-5 -30 -5 -51q0 -79 46.5 -124.5t121.5 -45.5q56 0 107.5 27t87 77t47.5 116q5 28 5 50zM305.5 675q27.5 24 63.5 24q18 0 29.5 -6t27.5 -19q13 -11 23 -16.5t24 -5.5q17 0 31 11.5t20 33.5h43q-13 -44 -41.5 -68.5t-64.5 -24.5q-19 0 -31.5 6.5t-27.5 19.5
q-12 10 -22 15.5t-23 5.5q-37 0 -50 -45h-43q14 45 41.5 69z" />
    <glyph glyph-name="adieresis" unicode="&#xe4;" horiz-adv-x="675" 
d="M106 421.5q45 63.5 110.5 98t140.5 34.5q78 0 128 -36t65 -92l21 120h70l-96 -546h-70l21 121q-34 -56 -97.5 -92.5t-141.5 -36.5q-65 0 -114 27t-76 76.5t-27 116.5q0 29 6 62q15 84 60 147.5zM528 323q0 78 -47 124t-122 46q-58 0 -108.5 -26t-85.5 -75.5t-47 -117.5
q-5 -30 -5 -51q0 -79 46.5 -124.5t121.5 -45.5q56 0 107.5 27t87 77t47.5 116q5 28 5 50zM295.5 634q-10.5 11 -10.5 27q0 22 16 38t38 16q17 0 27.5 -10.5t10.5 -27.5q0 -22 -16.5 -38t-37.5 -16q-17 0 -27.5 11zM449.5 634q-10.5 11 -10.5 27q0 22 16.5 38t38.5 16
q16 0 26.5 -10.5t10.5 -26.5q0 -22 -16.5 -38.5t-37.5 -16.5q-17 0 -27.5 11z" />
    <glyph glyph-name="aring" unicode="&#xe5;" horiz-adv-x="675" 
d="M106 421.5q45 63.5 110.5 98t140.5 34.5q78 0 128 -36t65 -92l21 120h70l-96 -546h-70l21 121q-34 -56 -97.5 -92.5t-141.5 -36.5q-65 0 -114 27t-76 76.5t-27 116.5q0 29 6 62q15 84 60 147.5zM528 323q0 78 -47 124t-122 46q-58 0 -108.5 -26t-85.5 -75.5t-47 -117.5
q-5 -30 -5 -51q0 -79 46.5 -124.5t121.5 -45.5q56 0 107.5 27t87 77t47.5 116q5 28 5 50zM357 782.5q34 27.5 76 27.5q37 0 60.5 -21.5t23.5 -57.5t-17 -63.5t-44.5 -42.5t-58.5 -15q-37 0 -61 21.5t-24 58.5q0 6 2 20q9 45 43 72.5zM462 758q-14 13 -37 13
q-26 0 -45.5 -16.5t-24.5 -44.5q-1 -5 -1 -13q0 -22 13.5 -35t36.5 -13q29 0 50.5 21t21.5 53q0 22 -14 35z" />
    <glyph glyph-name="ae" unicode="&#xe6;" horiz-adv-x="1108" 
d="M971 527.5q48 -26.5 72.5 -72.5t24.5 -104q0 -26 -4 -49q-6 -33 -14 -54h-460q-2 -22 -2 -31q0 -54 23 -91.5t61 -56t83 -18.5q72 0 125.5 33t77.5 89h75q-34 -80 -107 -130.5t-170 -50.5q-74 0 -126.5 35.5t-65.5 98.5l-23 -126h-66l23 126q-38 -60 -101 -97t-139 -37
q-99 0 -158.5 59.5t-59.5 160.5q0 29 6 62q15 84 60 147.5t111.5 98t142.5 34.5q75 0 123.5 -35t66.5 -96l22 123h66l-22 -124q42 66 104 99t135 33q68 0 116 -26.5zM998 346q0 71 -46 109.5t-118 38.5q-52 0 -100.5 -22.5t-84.5 -66.5t-50 -105h394q5 28 5 46zM528 323
q0 78 -47 124t-122 46q-58 0 -108.5 -26t-85.5 -75.5t-47 -117.5q-5 -30 -5 -51q0 -79 46.5 -124.5t121.5 -45.5q56 0 107.5 27t87 77t47.5 116q5 28 5 50z" />
    <glyph glyph-name="ccedilla" unicode="&#xe7;" horiz-adv-x="613" 
d="M394 84.5q52 33.5 77 93.5h75q-32 -79 -100.5 -129t-160.5 -56l-11 -60q54 2 84 -18t30 -57q0 -6 -2 -18q-8 -45 -44.5 -71.5t-89.5 -26.5h-100l8 47h86q72 0 80 51q1 4 1 11q0 37 -63 37h-47l19 105q-90 8 -143 65.5t-53 151.5q0 30 6 63q15 85 60.5 148.5t111.5 98
t143 34.5q101 0 157.5 -50t60.5 -136h-75q-3 59 -43.5 92.5t-109.5 33.5q-85 0 -149.5 -57.5t-83.5 -163.5q-5 -25 -5 -57q0 -80 43.5 -122.5t115.5 -42.5q70 0 122 33.5z" />
    <glyph glyph-name="egrave" unicode="&#xe8;" horiz-adv-x="622" 
d="M482 527.5q49 -26.5 74.5 -72.5t25.5 -105q0 -27 -4 -48q-6 -30 -12 -54h-453q-3 -19 -3 -36q0 -77 46.5 -119t118.5 -42q69 0 121 33t76 89h75q-34 -80 -108.5 -130.5t-173.5 -50.5q-102 0 -163.5 58.5t-61.5 159.5q0 30 6 63q15 85 60.5 149t112.5 98t145 34
q69 0 118 -26.5zM511 347q0 71 -45 109t-115 38q-51 0 -98 -22t-82 -66t-48 -106h383q5 28 5 47zM466 642l-9 -54l-184 119l11 63z" />
    <glyph glyph-name="eacute" unicode="&#xe9;" horiz-adv-x="622" 
d="M482 527.5q49 -26.5 74.5 -72.5t25.5 -105q0 -27 -4 -48q-6 -30 -12 -54h-453q-3 -19 -3 -36q0 -77 46.5 -119t118.5 -42q69 0 121 33t76 89h75q-34 -80 -108.5 -130.5t-173.5 -50.5q-102 0 -163.5 58.5t-61.5 159.5q0 30 6 63q15 85 60.5 149t112.5 98t145 34
q69 0 118 -26.5zM511 347q0 71 -45 109t-115 38q-51 0 -98 -22t-82 -66t-48 -106h383q5 28 5 47zM478 707l-226 -119l9 54l228 128z" />
    <glyph glyph-name="ecircumflex" unicode="&#xea;" horiz-adv-x="622" 
d="M482 527.5q49 -26.5 74.5 -72.5t25.5 -105q0 -27 -4 -48q-6 -30 -12 -54h-453q-3 -19 -3 -36q0 -77 46.5 -119t118.5 -42q69 0 121 33t76 89h75q-34 -80 -108.5 -130.5t-173.5 -50.5q-102 0 -163.5 58.5t-61.5 159.5q0 30 6 63q15 85 60.5 149t112.5 98t145 34
q69 0 118 -26.5zM511 347q0 71 -45 109t-115 38q-51 0 -98 -22t-82 -66t-48 -106h383q5 28 5 47zM383 691l-149 -84l10 57l149 82l119 -82l-10 -57z" />
    <glyph glyph-name="edieresis" unicode="&#xeb;" horiz-adv-x="622" 
d="M482 527.5q49 -26.5 74.5 -72.5t25.5 -105q0 -27 -4 -48q-6 -30 -12 -54h-453q-3 -19 -3 -36q0 -77 46.5 -119t118.5 -42q69 0 121 33t76 89h75q-34 -80 -108.5 -130.5t-173.5 -50.5q-102 0 -163.5 58.5t-61.5 159.5q0 30 6 63q15 85 60.5 149t112.5 98t145 34
q69 0 118 -26.5zM511 347q0 71 -45 109t-115 38q-51 0 -98 -22t-82 -66t-48 -106h383q5 28 5 47zM267.5 634q-10.5 11 -10.5 27q0 22 16 38t38 16q17 0 27.5 -10.5t10.5 -27.5q0 -22 -16.5 -38t-37.5 -16q-17 0 -27.5 11zM421.5 634q-10.5 11 -10.5 27q0 22 16.5 38t38.5 16
q16 0 26.5 -10.5t10.5 -26.5q0 -22 -16.5 -38.5t-37.5 -16.5q-17 0 -27.5 11z" />
    <glyph glyph-name="igrave" unicode="&#xec;" horiz-adv-x="229" 
d="M196 546l-96 -546h-70l96 546h70zM270 642l-9 -54l-184 119l11 63z" />
    <glyph glyph-name="iacute" unicode="&#xed;" horiz-adv-x="229" 
d="M196 546l-96 -546h-70l96 546h70zM282 707l-226 -119l9 54l228 128z" />
    <glyph glyph-name="icircumflex" unicode="&#xee;" horiz-adv-x="229" 
d="M196 546l-96 -546h-70l96 546h70zM187 691l-149 -84l10 57l149 82l119 -82l-10 -57z" />
    <glyph glyph-name="idieresis" unicode="&#xef;" horiz-adv-x="229" 
d="M196 546l-96 -546h-70l96 546h70zM70.5 634q-10.5 11 -10.5 27q0 22 16 38t38 16q17 0 27.5 -10.5t10.5 -27.5q0 -22 -16.5 -38t-37.5 -16q-17 0 -27.5 11zM224.5 634q-10.5 11 -10.5 27q0 22 16.5 38t38.5 16q16 0 26.5 -10.5t10.5 -26.5q0 -22 -16.5 -38.5t-37.5 -16.5
q-17 0 -27.5 11z" />
    <glyph glyph-name="eth" unicode="&#xf0;" horiz-adv-x="640" 
d="M628 701l-113 -37q91 -118 91 -262q0 -40 -8 -90q-19 -104 -66.5 -176t-115.5 -108t-149 -36q-104 0 -164.5 60.5t-60.5 162.5q0 32 6 66q14 82 59.5 144.5t112 96.5t143.5 34q67 0 113.5 -31t64.5 -93q-5 61 -23.5 112.5t-56.5 102.5l-147 -48l7 41l115 37
q-22 26 -61 63h72q21 -20 43 -45l145 47zM524 326q0 81 -47 126t-120 45q-56 0 -106 -25t-85 -74t-47 -117q-5 -25 -5 -58q0 -82 45 -127t119 -45q55 0 105.5 26t87 76.5t48.5 119.5q5 32 5 53z" />
    <glyph glyph-name="ntilde" unicode="&#xf1;" horiz-adv-x="633" 
d="M519.5 510.5q50.5 -45.5 50.5 -132.5q0 -32 -5 -58l-57 -320h-69l55 312q4 23 4 49q0 66 -36 100t-101 34q-79 0 -135 -50t-73 -147v3l-53 -301h-70l96 546h70l-17 -94q35 50 89 77t117 27q84 0 134.5 -45.5zM276.5 675q27.5 24 63.5 24q18 0 29.5 -6t27.5 -19
q13 -11 23 -16.5t24 -5.5q17 0 31 11.5t20 33.5h43q-13 -44 -41.5 -68.5t-64.5 -24.5q-19 0 -31.5 6.5t-27.5 19.5q-12 10 -22 15.5t-23 5.5q-37 0 -50 -45h-43q14 45 41.5 69z" />
    <glyph glyph-name="ograve" unicode="&#xf2;" horiz-adv-x="642" 
d="M150 19.5q-52 27.5 -80.5 78t-28.5 118.5q0 92 42 169.5t117 123t167 45.5q68 0 120 -27.5t81 -78t29 -118.5q0 -93 -43 -170t-117.5 -122.5t-166.5 -45.5q-68 0 -120 27.5zM405.5 89q56.5 38 88 101t31.5 136q0 82 -47.5 125t-120.5 43q-71 0 -126.5 -38t-86.5 -101
t-31 -136q0 -81 47 -124.5t118 -43.5t127.5 38zM476 650l-9 -54l-184 119l11 63z" />
    <glyph glyph-name="oacute" unicode="&#xf3;" horiz-adv-x="642" 
d="M150 19.5q-52 27.5 -80.5 78t-28.5 118.5q0 92 42 169.5t117 123t167 45.5q68 0 120 -27.5t81 -78t29 -118.5q0 -93 -43 -170t-117.5 -122.5t-166.5 -45.5q-68 0 -120 27.5zM405.5 89q56.5 38 88 101t31.5 136q0 82 -47.5 125t-120.5 43q-71 0 -126.5 -38t-86.5 -101
t-31 -136q0 -81 47 -124.5t118 -43.5t127.5 38zM488 715l-226 -119l9 54l228 128z" />
    <glyph glyph-name="ocircumflex" unicode="&#xf4;" horiz-adv-x="642" 
d="M150 19.5q-52 27.5 -80.5 78t-28.5 118.5q0 92 42 169.5t117 123t167 45.5q68 0 120 -27.5t81 -78t29 -118.5q0 -93 -43 -170t-117.5 -122.5t-166.5 -45.5q-68 0 -120 27.5zM405.5 89q56.5 38 88 101t31.5 136q0 82 -47.5 125t-120.5 43q-71 0 -126.5 -38t-86.5 -101
t-31 -136q0 -81 47 -124.5t118 -43.5t127.5 38zM393 699l-149 -84l10 57l149 82l119 -82l-10 -57z" />
    <glyph glyph-name="otilde" unicode="&#xf5;" horiz-adv-x="642" 
d="M150 19.5q-52 27.5 -80.5 78t-28.5 118.5q0 92 42 169.5t117 123t167 45.5q68 0 120 -27.5t81 -78t29 -118.5q0 -93 -43 -170t-117.5 -122.5t-166.5 -45.5q-68 0 -120 27.5zM405.5 89q56.5 38 88 101t31.5 136q0 82 -47.5 125t-120.5 43q-71 0 -126.5 -38t-86.5 -101
t-31 -136q0 -81 47 -124.5t118 -43.5t127.5 38zM287.5 683q27.5 24 63.5 24q18 0 29.5 -6t27.5 -19q13 -11 23 -16.5t24 -5.5q17 0 31 11.5t20 33.5h43q-13 -44 -41.5 -68.5t-64.5 -24.5q-19 0 -31.5 6.5t-27.5 19.5q-12 10 -22 15.5t-23 5.5q-37 0 -50 -45h-43
q14 45 41.5 69z" />
    <glyph glyph-name="odieresis" unicode="&#xf6;" horiz-adv-x="642" 
d="M150 19.5q-52 27.5 -80.5 78t-28.5 118.5q0 92 42 169.5t117 123t167 45.5q68 0 120 -27.5t81 -78t29 -118.5q0 -93 -43 -170t-117.5 -122.5t-166.5 -45.5q-68 0 -120 27.5zM405.5 89q56.5 38 88 101t31.5 136q0 82 -47.5 125t-120.5 43q-71 0 -126.5 -38t-86.5 -101
t-31 -136q0 -81 47 -124.5t118 -43.5t127.5 38zM276.5 642q-10.5 11 -10.5 27q0 22 16 38t38 16q17 0 27.5 -10.5t10.5 -27.5q0 -22 -16.5 -38t-37.5 -16q-17 0 -27.5 11zM430.5 642q-10.5 11 -10.5 27q0 22 16.5 38t38.5 16q16 0 26.5 -10.5t10.5 -26.5q0 -22 -16.5 -38.5
t-37.5 -16.5q-17 0 -27.5 11z" />
    <glyph glyph-name="divide" unicode="&#xf7;" horiz-adv-x="637" 
d="M323 546q-12 12 -12 31q0 24 18.5 42t42.5 18q19 0 31 -11.5t12 -30.5q0 -24 -18.5 -42.5t-42.5 -18.5q-19 0 -31 12zM597 401l-11 -62h-509l11 62h509zM253 117q-12 12 -12 31q0 24 18.5 42t42.5 18q19 0 31 -11.5t12 -30.5q0 -24 -18.5 -42.5t-42.5 -18.5q-19 0 -31 12
z" />
    <glyph glyph-name="oslash" unicode="&#xf8;" horiz-adv-x="642" 
d="M557 467q40 -57 40 -137q0 -93 -43 -170t-117.5 -122.5t-166.5 -45.5q-103 0 -165 60l-56 -52h-52l85 78q-41 58 -41 138q0 92 42 169.5t117 123t167 45.5q103 0 167 -61l57 53h52zM135 127l347 319q-23 24 -55.5 36t-69.5 12q-71 0 -126.5 -38t-86.5 -101t-31 -136
q0 -54 22 -92zM503 418l-347 -320q22 -23 54 -35t68 -12q71 0 127.5 38t88 101t31.5 136q0 53 -22 92z" />
    <glyph glyph-name="ugrave" unicode="&#xf9;" horiz-adv-x="633" 
d="M599 546l-96 -546h-70l17 96q-34 -51 -88 -78t-116 -27q-84 0 -135 45.5t-51 132.5q0 32 5 58l56 319h69l-55 -311q-4 -23 -4 -48q0 -66 36.5 -100.5t101.5 -34.5q76 0 131 46.5t74 136.5l55 311h70zM472 642l-9 -54l-184 119l11 63z" />
    <glyph glyph-name="uacute" unicode="&#xfa;" horiz-adv-x="633" 
d="M599 546l-96 -546h-70l17 96q-34 -51 -88 -78t-116 -27q-84 0 -135 45.5t-51 132.5q0 32 5 58l56 319h69l-55 -311q-4 -23 -4 -48q0 -66 36.5 -100.5t101.5 -34.5q76 0 131 46.5t74 136.5l55 311h70zM484 707l-226 -119l9 54l228 128z" />
    <glyph glyph-name="ucircumflex" unicode="&#xfb;" horiz-adv-x="633" 
d="M599 546l-96 -546h-70l17 96q-34 -51 -88 -78t-116 -27q-84 0 -135 45.5t-51 132.5q0 32 5 58l56 319h69l-55 -311q-4 -23 -4 -48q0 -66 36.5 -100.5t101.5 -34.5q76 0 131 46.5t74 136.5l55 311h70zM389 691l-149 -84l10 57l149 82l119 -82l-10 -57z" />
    <glyph glyph-name="udieresis" unicode="&#xfc;" horiz-adv-x="633" 
d="M599 546l-96 -546h-70l17 96q-34 -51 -88 -78t-116 -27q-84 0 -135 45.5t-51 132.5q0 32 5 58l56 319h69l-55 -311q-4 -23 -4 -48q0 -66 36.5 -100.5t101.5 -34.5q76 0 131 46.5t74 136.5l55 311h70zM273.5 634q-10.5 11 -10.5 27q0 22 16 38t38 16q17 0 27.5 -10.5
t10.5 -27.5q0 -22 -16.5 -38t-37.5 -16q-17 0 -27.5 11zM427.5 634q-10.5 11 -10.5 27q0 22 16.5 38t38.5 16q16 0 26.5 -10.5t10.5 -26.5q0 -22 -16.5 -38.5t-37.5 -16.5q-17 0 -27.5 11z" />
    <glyph glyph-name="yacute" unicode="&#xfd;" horiz-adv-x="545" 
d="M139 546l103 -463l261 463h73l-465 -803h-74l152 261l-128 542h78zM440 707l-226 -119l9 54l228 128z" />
    <glyph glyph-name="thorn" unicode="&#xfe;" horiz-adv-x="675" 
d="M271.5 515q63.5 39 141.5 39q99 0 158.5 -58.5t59.5 -159.5q0 -29 -6 -62q-15 -84 -60 -148t-110.5 -99t-140.5 -35q-78 0 -127.5 39.5t-63.5 104.5l-69 -394h-70l177 998h69l-58 -328q36 64 99.5 103zM559 325q0 79 -46.5 123.5t-122.5 44.5q-56 0 -107 -27t-87 -77
t-48 -116q-5 -28 -5 -50q0 -78 47 -124t122 -46q58 0 108.5 26.5t86 77t47.5 117.5q5 30 5 51z" />
    <glyph glyph-name="ydieresis" unicode="&#xff;" horiz-adv-x="545" 
d="M139 546l103 -463l261 463h73l-465 -803h-74l152 261l-128 542h78zM229.5 634q-10.5 11 -10.5 27q0 22 16 38t38 16q17 0 27.5 -10.5t10.5 -27.5q0 -22 -16.5 -38t-37.5 -16q-17 0 -27.5 11zM383.5 634q-10.5 11 -10.5 27q0 22 16.5 38t38.5 16q16 0 26.5 -10.5
t10.5 -26.5q0 -22 -16.5 -38.5t-37.5 -16.5q-17 0 -27.5 11z" />
    <glyph glyph-name="Amacron" unicode="&#x100;" horiz-adv-x="652" 
d="M465 166h-319l-90 -166h-74l377 690h79l132 -690h-74zM454 222l-71 381l-207 -381h278zM595 844l-9 -54h-340l10 54h339z" />
    <glyph glyph-name="amacron" unicode="&#x101;" horiz-adv-x="675" 
d="M106 421.5q45 63.5 110.5 98t140.5 34.5q78 0 128 -36t65 -92l21 120h70l-96 -546h-70l21 121q-34 -56 -97.5 -92.5t-141.5 -36.5q-65 0 -114 27t-76 76.5t-27 116.5q0 29 6 62q15 84 60 147.5zM528 323q0 78 -47 124t-122 46q-58 0 -108.5 -26t-85.5 -75.5t-47 -117.5
q-5 -30 -5 -51q0 -79 46.5 -124.5t121.5 -45.5q56 0 107.5 27t87 77t47.5 116q5 28 5 50zM582 700l-9 -54h-340l10 54h339z" />
    <glyph glyph-name="Abreve" unicode="&#x102;" horiz-adv-x="652" 
d="M465 166h-319l-90 -166h-74l377 690h79l132 -690h-74zM454 222l-71 381l-207 -381h278zM516 790.5q-41 -34.5 -106 -34.5q-56 0 -85.5 27.5t-29.5 71.5q0 8 2 24l2 13h44q-2 -14 -2 -20q0 -60 79 -60q91 0 105 80h45l-3 -14q-10 -53 -51 -87.5z" />
    <glyph glyph-name="abreve" unicode="&#x103;" horiz-adv-x="675" 
d="M106 421.5q45 63.5 110.5 98t140.5 34.5q78 0 128 -36t65 -92l21 120h70l-96 -546h-70l21 121q-34 -56 -97.5 -92.5t-141.5 -36.5q-65 0 -114 27t-76 76.5t-27 116.5q0 29 6 62q15 84 60 147.5zM528 323q0 78 -47 124t-122 46q-58 0 -108.5 -26t-85.5 -75.5t-47 -117.5
q-5 -30 -5 -51q0 -79 46.5 -124.5t121.5 -45.5q56 0 107.5 27t87 77t47.5 116q5 28 5 50zM503 646.5q-41 -34.5 -106 -34.5q-56 0 -85.5 27.5t-29.5 71.5q0 8 2 24l2 13h44q-2 -14 -2 -20q0 -60 79 -60q91 0 105 80h45l-3 -14q-10 -53 -51 -87.5z" />
    <glyph glyph-name="Aogonek" unicode="&#x104;" horiz-adv-x="652" 
d="M443 -142.5q14 -10.5 39 -10.5q31 0 68 14l-9 -49q-39 -13 -75 -13q-43 0 -71 18.5t-28 55.5q0 40 30.5 78t95.5 66l-28 149h-319l-90 -166h-74l377 690h79l132 -690l-64 -29q-42 -19 -59.5 -39t-17.5 -44q0 -20 14 -30.5zM454 222l-71 381l-207 -381h278z" />
    <glyph glyph-name="aogonek" unicode="&#x105;" horiz-adv-x="675" 
d="M421 -68q-18 -20 -18 -44q0 -20 14.5 -30.5t39.5 -10.5q30 0 67 14l-9 -49q-37 -13 -75 -13q-42 0 -70 18t-28 55q0 87 131 142l5 2l18 105q-34 -56 -97.5 -92.5t-141.5 -36.5q-65 0 -114 27t-76 76.5t-27 116.5q0 29 6 62q15 84 60 147.5t110.5 98t140.5 34.5
q78 0 128 -36t65 -92l21 120h70l-96 -546l-64 -29q-42 -19 -60 -39zM388.5 80q51.5 27 87 77t47.5 116q5 28 5 50q0 78 -47 124t-122 46q-58 0 -108.5 -26t-85.5 -75.5t-47 -117.5q-5 -30 -5 -51q0 -79 46.5 -124.5t121.5 -45.5q56 0 107.5 27z" />
    <glyph glyph-name="Cacute" unicode="&#x106;" horiz-adv-x="771" 
d="M137 534.5q59 81.5 145.5 127t182.5 45.5q116 0 190.5 -55.5t94.5 -156.5h-82q-18 70 -72.5 109.5t-141.5 39.5q-77 0 -144.5 -36t-114.5 -103t-63 -155q-6 -34 -6 -66q0 -69 28 -120.5t79 -79t117 -27.5q87 0 155.5 39t110.5 108h83q-57 -100 -150.5 -155t-209.5 -55
q-85 0 -149.5 35.5t-100.5 99.5t-36 148q0 29 7 73q18 103 77 184.5zM590 851l-226 -119l9 54l228 128z" />
    <glyph glyph-name="cacute" unicode="&#x107;" horiz-adv-x="613" 
d="M106.5 421.5q45.5 63.5 111.5 98t143 34.5q101 0 157.5 -50t60.5 -136h-75q-3 59 -43.5 92.5t-109.5 33.5q-85 0 -149.5 -57.5t-83.5 -163.5q-5 -25 -5 -57q0 -80 43.5 -122.5t115.5 -42.5q70 0 122 33.5t77 93.5h75q-34 -84 -109 -135t-175 -51q-101 0 -161.5 58
t-60.5 159q0 31 6 64q15 85 60.5 148.5zM475 707l-226 -119l9 54l228 128z" />
    <glyph glyph-name="Cdotaccent" unicode="&#x10a;" horiz-adv-x="771" 
d="M137 534.5q59 81.5 145.5 127t182.5 45.5q116 0 190.5 -55.5t94.5 -156.5h-82q-18 70 -72.5 109.5t-141.5 39.5q-77 0 -144.5 -36t-114.5 -103t-63 -155q-6 -34 -6 -66q0 -69 28 -120.5t79 -79t117 -27.5q87 0 155.5 39t110.5 108h83q-57 -100 -150.5 -155t-209.5 -55
q-85 0 -149.5 35.5t-100.5 99.5t-36 148q0 29 7 73q18 103 77 184.5zM451.5 770.5q-11.5 13.5 -8.5 32.5q4 19 20 32.5t35 13.5q16 0 27 -10.5t11 -26.5q0 -6 -1 -9q-3 -19 -18.5 -32.5t-34.5 -13.5t-30.5 13.5z" />
    <glyph glyph-name="cdotaccent" unicode="&#x10b;" horiz-adv-x="613" 
d="M106.5 421.5q45.5 63.5 111.5 98t143 34.5q101 0 157.5 -50t60.5 -136h-75q-3 59 -43.5 92.5t-109.5 33.5q-85 0 -149.5 -57.5t-83.5 -163.5q-5 -25 -5 -57q0 -80 43.5 -122.5t115.5 -42.5q70 0 122 33.5t77 93.5h75q-34 -84 -109 -135t-175 -51q-101 0 -161.5 58
t-60.5 159q0 31 6 64q15 85 60.5 148.5zM336.5 626.5q-11.5 13.5 -8.5 32.5q4 19 20 32.5t35 13.5q16 0 27 -10.5t11 -26.5q0 -6 -1 -9q-3 -19 -18.5 -32.5t-34.5 -13.5t-30.5 13.5z" />
    <glyph glyph-name="Ccaron" unicode="&#x10c;" horiz-adv-x="771" 
d="M137 534.5q59 81.5 145.5 127t182.5 45.5q116 0 190.5 -55.5t94.5 -156.5h-82q-18 70 -72.5 109.5t-141.5 39.5q-77 0 -144.5 -36t-114.5 -103t-63 -155q-6 -34 -6 -66q0 -69 28 -120.5t79 -79t117 -27.5q87 0 155.5 39t110.5 108h83q-57 -100 -150.5 -155t-209.5 -55
q-85 0 -149.5 35.5t-100.5 99.5t-36 148q0 29 7 73q18 103 77 184.5zM628 832l-148 -82l-120 82l11 57l119 -84l148 84z" />
    <glyph glyph-name="ccaron" unicode="&#x10d;" horiz-adv-x="613" 
d="M106.5 421.5q45.5 63.5 111.5 98t143 34.5q101 0 157.5 -50t60.5 -136h-75q-3 59 -43.5 92.5t-109.5 33.5q-85 0 -149.5 -57.5t-83.5 -163.5q-5 -25 -5 -57q0 -80 43.5 -122.5t115.5 -42.5q70 0 122 33.5t77 93.5h75q-34 -84 -109 -135t-175 -51q-101 0 -161.5 58
t-60.5 159q0 31 6 64q15 85 60.5 148.5zM513 688l-148 -82l-120 82l11 57l119 -84l148 84z" />
    <glyph glyph-name="Dcaron" unicode="&#x10e;" horiz-adv-x="706" 
d="M595 628q82 -71 82 -200q0 -35 -8 -80q-19 -108 -77 -186.5t-148.5 -120t-206.5 -41.5h-207l123 699h208q152 0 234 -71zM483 132.5q90 77.5 114 215.5q7 36 7 72q0 106 -64 164t-190 58h-137l-103 -587h137q146 0 236 77.5zM578 832l-148 -82l-120 82l11 57l119 -84
l148 84z" />
    <glyph glyph-name="dcaron" unicode="&#x10f;" horiz-adv-x="730" 
d="M106 421.5q45 63.5 111 98t141 34.5q72 0 123.5 -35t69.5 -91l55 312h70l-131 -740h-70l22 122q-36 -57 -99 -93.5t-140 -36.5q-99 0 -158.5 59.5t-59.5 160.5q0 29 6 62q15 84 60 147.5zM804 655q-17 -103 -109 -103l6 36q25 0 38 12.5t18 38.5l5 25h-46l13 76h81
q0 -49 -6 -85zM528 323q0 78 -47 124t-122 46q-58 0 -108.5 -26t-85.5 -75.5t-47 -117.5q-5 -30 -5 -51q0 -79 46.5 -124.5t121.5 -45.5q56 0 107.5 27t87 77t47.5 116q5 28 5 50z" />
    <glyph glyph-name="Dcroat" unicode="&#x110;" horiz-adv-x="730" 
d="M619 628q82 -71 82 -199q0 -36 -8 -81q-19 -108 -76.5 -186.5t-148 -120t-206.5 -41.5h-208l56 316h-94l11 65h95l56 318h208q151 0 233 -71zM629 421q0 105 -64 163t-189 58h-138l-46 -261h204l-11 -65h-204l-46 -261h137q146 0 236 77.5t114 215.5q7 36 7 73z" />
    <glyph glyph-name="dcroat" unicode="&#x111;" horiz-adv-x="671" 
d="M717 618h-63l-109 -618h-70l22 122q-36 -57 -99 -93.5t-140 -36.5q-99 0 -158.5 59.5t-59.5 160.5q0 29 6 62q15 84 60 147.5t111 98t141 34.5q72 0 123.5 -35t69.5 -91l33 190h-140l8 44h140l14 78h70l-14 -78h63zM528 323q0 78 -47 124t-122 46q-58 0 -108.5 -26
t-85.5 -75.5t-47 -117.5q-5 -30 -5 -51q0 -79 46.5 -124.5t121.5 -45.5q56 0 107.5 27t87 77t47.5 116q5 28 5 50z" />
    <glyph glyph-name="Emacron" unicode="&#x112;" horiz-adv-x="503" 
d="M213 644l-46 -264h265l-9 -56h-266l-47 -268h295l-10 -56h-365l123 700h366l-11 -56h-295zM517 844l-9 -54h-340l10 54h339z" />
    <glyph glyph-name="emacron" unicode="&#x113;" horiz-adv-x="622" 
d="M482 527.5q49 -26.5 74.5 -72.5t25.5 -105q0 -27 -4 -48q-6 -30 -12 -54h-453q-3 -19 -3 -36q0 -77 46.5 -119t118.5 -42q69 0 121 33t76 89h75q-34 -80 -108.5 -130.5t-173.5 -50.5q-102 0 -163.5 58.5t-61.5 159.5q0 30 6 63q15 85 60.5 149t112.5 98t145 34
q69 0 118 -26.5zM511 347q0 71 -45 109t-115 38q-51 0 -98 -22t-82 -66t-48 -106h383q5 28 5 47zM554 700l-9 -54h-340l10 54h339z" />
    <glyph glyph-name="Ebreve" unicode="&#x114;" horiz-adv-x="503" 
d="M213 644l-46 -264h265l-9 -56h-266l-47 -268h295l-10 -56h-365l123 700h366l-11 -56h-295zM438 790.5q-41 -34.5 -106 -34.5q-56 0 -85.5 27.5t-29.5 71.5q0 8 2 24l2 13h44q-2 -14 -2 -20q0 -60 79 -60q91 0 105 80h45l-3 -14q-10 -53 -51 -87.5z" />
    <glyph glyph-name="ebreve" unicode="&#x115;" horiz-adv-x="622" 
d="M482 527.5q49 -26.5 74.5 -72.5t25.5 -105q0 -27 -4 -48q-6 -30 -12 -54h-453q-3 -19 -3 -36q0 -77 46.5 -119t118.5 -42q69 0 121 33t76 89h75q-34 -80 -108.5 -130.5t-173.5 -50.5q-102 0 -163.5 58.5t-61.5 159.5q0 30 6 63q15 85 60.5 149t112.5 98t145 34
q69 0 118 -26.5zM511 347q0 71 -45 109t-115 38q-51 0 -98 -22t-82 -66t-48 -106h383q5 28 5 47zM475 646.5q-41 -34.5 -106 -34.5q-56 0 -85.5 27.5t-29.5 71.5q0 8 2 24l2 13h44q-2 -14 -2 -20q0 -60 79 -60q91 0 105 80h45l-3 -14q-10 -53 -51 -87.5z" />
    <glyph glyph-name="Edotaccent" unicode="&#x116;" horiz-adv-x="503" 
d="M213 644l-46 -264h265l-9 -56h-266l-47 -268h295l-10 -56h-365l123 700h366l-11 -56h-295zM302.5 770.5q-11.5 13.5 -8.5 32.5q4 19 20 32.5t35 13.5q16 0 27 -10.5t11 -26.5q0 -6 -1 -9q-3 -19 -18.5 -32.5t-34.5 -13.5t-30.5 13.5z" />
    <glyph glyph-name="edotaccent" unicode="&#x117;" horiz-adv-x="622" 
d="M482 527.5q49 -26.5 74.5 -72.5t25.5 -105q0 -27 -4 -48q-6 -30 -12 -54h-453q-3 -19 -3 -36q0 -77 46.5 -119t118.5 -42q69 0 121 33t76 89h75q-34 -80 -108.5 -130.5t-173.5 -50.5q-102 0 -163.5 58.5t-61.5 159.5q0 30 6 63q15 85 60.5 149t112.5 98t145 34
q69 0 118 -26.5zM511 347q0 71 -45 109t-115 38q-51 0 -98 -22t-82 -66t-48 -106h383q5 28 5 47zM339.5 626.5q-11.5 13.5 -8.5 32.5q4 19 20 32.5t35 13.5q16 0 27 -10.5t11 -26.5q0 -6 -1 -9q-3 -19 -18.5 -32.5t-34.5 -13.5t-30.5 13.5z" />
    <glyph glyph-name="Eogonek" unicode="&#x118;" horiz-adv-x="503" 
d="M213 644l-46 -264h265l-9 -56h-266l-47 -268h295l-10 -56l-64 -29q-42 -19 -60 -39t-18 -44q0 -20 14.5 -30.5t39.5 -10.5q30 0 67 14l-9 -49q-37 -13 -75 -13q-42 0 -70 18t-28 55q0 76 101 128h-263l123 700h366l-11 -56h-295z" />
    <glyph glyph-name="eogonek" unicode="&#x119;" horiz-adv-x="622" 
d="M482 527.5q49 -26.5 74.5 -72.5t25.5 -105q0 -27 -4 -48q-6 -30 -12 -54h-453q-3 -19 -3 -36q0 -77 46.5 -119t118.5 -42q69 0 121 33t76 89h75q-25 -60 -73.5 -104t-114.5 -64l-47 -21q-42 -19 -60 -39t-18 -44q0 -20 14.5 -30.5t39.5 -10.5q30 0 67 14l-9 -49
q-37 -13 -75 -13q-42 0 -70 18t-28 55q0 61 67 108q-92 8 -146 65.5t-54 151.5q0 30 6 63q15 85 60.5 149t112.5 98t145 34q69 0 118 -26.5zM511 347q0 71 -45 109t-115 38q-51 0 -98 -22t-82 -66t-48 -106h383q5 28 5 47z" />
    <glyph glyph-name="Ecaron" unicode="&#x11a;" horiz-adv-x="503" 
d="M213 644l-46 -264h265l-9 -56h-266l-47 -268h295l-10 -56h-365l123 700h366l-11 -56h-295zM479 832l-148 -82l-120 82l11 57l119 -84l148 84z" />
    <glyph glyph-name="ecaron" unicode="&#x11b;" horiz-adv-x="622" 
d="M482 527.5q49 -26.5 74.5 -72.5t25.5 -105q0 -27 -4 -48q-6 -30 -12 -54h-453q-3 -19 -3 -36q0 -77 46.5 -119t118.5 -42q69 0 121 33t76 89h75q-34 -80 -108.5 -130.5t-173.5 -50.5q-102 0 -163.5 58.5t-61.5 159.5q0 30 6 63q15 85 60.5 149t112.5 98t145 34
q69 0 118 -26.5zM511 347q0 71 -45 109t-115 38q-51 0 -98 -22t-82 -66t-48 -106h383q5 28 5 47zM516 688l-148 -82l-120 82l11 57l119 -84l148 84z" />
    <glyph glyph-name="Gbreve" unicode="&#x11e;" horiz-adv-x="782" 
d="M138 534.5q60 81.5 147 127t184 45.5q112 0 186 -56t95 -156h-82q-18 69 -73 108.5t-138 39.5q-78 0 -146.5 -36t-115.5 -102.5t-63 -154.5q-6 -34 -6 -66q0 -70 28.5 -121.5t80 -79t119.5 -27.5q73 0 137 31.5t110 90.5t65 137h-294l10 56h368l-9 -51
q-22 -92 -80 -166.5t-141 -117.5t-177 -43q-86 0 -151.5 35.5t-102 100t-36.5 149.5q0 28 7 72q18 103 78 184.5zM587 790.5q-41 -34.5 -106 -34.5q-56 0 -85.5 27.5t-29.5 71.5q0 8 2 24l2 13h44q-2 -14 -2 -20q0 -60 79 -60q91 0 105 80h45l-3 -14q-10 -53 -51 -87.5z" />
    <glyph glyph-name="gbreve" unicode="&#x11f;" horiz-adv-x="675" 
d="M484.5 518q50.5 -36 65.5 -91l21 119h70l-98 -560q-13 -75 -55.5 -133t-106.5 -89.5t-138 -31.5q-105 0 -165.5 50t-62.5 136h69q8 -57 52 -91t118 -34q81 0 142 51.5t77 141.5l23 135q-34 -56 -97.5 -92.5t-140.5 -36.5q-99 0 -158.5 59.5t-59.5 160.5q0 29 6 62
q15 84 60 147.5t110.5 98t140.5 34.5q77 0 127.5 -36zM528 323q0 78 -47 124t-122 46q-58 0 -108.5 -26t-85.5 -75.5t-47 -117.5q-5 -30 -5 -51q0 -79 46.5 -124.5t121.5 -45.5q56 0 107.5 27t87 77t47.5 116q5 28 5 50zM503 646.5q-41 -34.5 -106 -34.5q-56 0 -85.5 27.5
t-29.5 71.5q0 8 2 24l2 13h44q-2 -14 -2 -20q0 -60 79 -60q91 0 105 80h45l-3 -14q-10 -53 -51 -87.5z" />
    <glyph glyph-name="Gdotaccent" unicode="&#x120;" horiz-adv-x="782" 
d="M138 534.5q60 81.5 147 127t184 45.5q112 0 186 -56t95 -156h-82q-18 69 -73 108.5t-138 39.5q-78 0 -146.5 -36t-115.5 -102.5t-63 -154.5q-6 -34 -6 -66q0 -70 28.5 -121.5t80 -79t119.5 -27.5q73 0 137 31.5t110 90.5t65 137h-294l10 56h368l-9 -51
q-22 -92 -80 -166.5t-141 -117.5t-177 -43q-86 0 -151.5 35.5t-102 100t-36.5 149.5q0 28 7 72q18 103 78 184.5zM451.5 770.5q-11.5 13.5 -8.5 32.5q4 19 20 32.5t35 13.5q16 0 27 -10.5t11 -26.5q0 -6 -1 -9q-3 -19 -18.5 -32.5t-34.5 -13.5t-30.5 13.5z" />
    <glyph glyph-name="gdotaccent" unicode="&#x121;" horiz-adv-x="675" 
d="M484.5 518q50.5 -36 65.5 -91l21 119h70l-98 -560q-13 -75 -55.5 -133t-106.5 -89.5t-138 -31.5q-105 0 -165.5 50t-62.5 136h69q8 -57 52 -91t118 -34q81 0 142 51.5t77 141.5l23 135q-34 -56 -97.5 -92.5t-140.5 -36.5q-99 0 -158.5 59.5t-59.5 160.5q0 29 6 62
q15 84 60 147.5t110.5 98t140.5 34.5q77 0 127.5 -36zM528 323q0 78 -47 124t-122 46q-58 0 -108.5 -26t-85.5 -75.5t-47 -117.5q-5 -30 -5 -51q0 -79 46.5 -124.5t121.5 -45.5q56 0 107.5 27t87 77t47.5 116q5 28 5 50zM367.5 626.5q-11.5 13.5 -8.5 32.5q4 19 20 32.5
t35 13.5q16 0 27 -10.5t11 -26.5q0 -6 -1 -9q-3 -19 -18.5 -32.5t-34.5 -13.5t-30.5 13.5z" />
    <glyph glyph-name="uni0122" unicode="&#x122;" horiz-adv-x="782" 
d="M138 534.5q60 81.5 147 127t184 45.5q112 0 186 -56t95 -156h-82q-18 69 -73 108.5t-138 39.5q-78 0 -146.5 -36t-115.5 -102.5t-63 -154.5q-6 -34 -6 -66q0 -70 28.5 -121.5t80 -79t119.5 -27.5q73 0 137 31.5t110 90.5t65 137h-294l10 56h368l-9 -51
q-22 -92 -80 -166.5t-141 -117.5t-177 -43q-86 0 -151.5 35.5t-102 100t-36.5 149.5q0 28 7 72q18 103 78 184.5zM370 -119q-19 -107 -110 -107l7 35q24 0 37 14t18 42l2 14h-42l12 69h79q2 -38 -3 -67z" />
    <glyph glyph-name="uni0123" unicode="&#x123;" horiz-adv-x="675" 
d="M353 680q9 54 36.5 78.5t72.5 24.5l-6 -36q-25 0 -38 -12.5t-18 -38.5l-4 -24h46l-14 -77h-81q0 49 6 85zM484.5 518q50.5 -36 65.5 -91l21 119h70l-98 -560q-13 -75 -55.5 -133t-106.5 -89.5t-138 -31.5q-105 0 -165.5 50t-62.5 136h69q8 -57 52 -91t118 -34
q81 0 142 51.5t77 141.5l23 135q-34 -56 -97.5 -92.5t-140.5 -36.5q-99 0 -158.5 59.5t-59.5 160.5q0 29 6 62q15 84 60 147.5t110.5 98t140.5 34.5q77 0 127.5 -36zM528 323q0 78 -47 124t-122 46q-58 0 -108.5 -26t-85.5 -75.5t-47 -117.5q-5 -30 -5 -51
q0 -79 46.5 -124.5t121.5 -45.5q56 0 107.5 27t87 77t47.5 116q5 28 5 50z" />
    <glyph glyph-name="Itilde" unicode="&#x128;" horiz-adv-x="229" 
d="M223 699l-123 -699h-70l123 699h70zM107.5 819q27.5 24 63.5 24q18 0 29.5 -6t27.5 -19q13 -11 23 -16.5t24 -5.5q17 0 31 11.5t20 33.5h43q-13 -44 -41.5 -68.5t-64.5 -24.5q-19 0 -31.5 6.5t-27.5 19.5q-12 10 -22 15.5t-23 5.5q-37 0 -50 -45h-43q14 45 41.5 69z" />
    <glyph glyph-name="itilde" unicode="&#x129;" horiz-adv-x="229" 
d="M196 546l-96 -546h-70l96 546h70zM81.5 675q27.5 24 63.5 24q18 0 29.5 -6t27.5 -19q13 -11 23 -16.5t24 -5.5q17 0 31 11.5t20 33.5h43q-13 -44 -41.5 -68.5t-64.5 -24.5q-19 0 -31.5 6.5t-27.5 19.5q-12 10 -22 15.5t-23 5.5q-37 0 -50 -45h-43q14 45 41.5 69z" />
    <glyph glyph-name="Imacron" unicode="&#x12a;" horiz-adv-x="229" 
d="M223 699l-123 -699h-70l123 699h70zM383 844l-9 -54h-340l10 54h339z" />
    <glyph glyph-name="imacron" unicode="&#x12b;" horiz-adv-x="229" 
d="M196 546l-96 -546h-70l96 546h70zM358 700l-9 -54h-340l10 54h339z" />
    <glyph glyph-name="uni012C" unicode="&#x12c;" horiz-adv-x="229" 
d="M223 699l-123 -699h-70l123 699h70zM304 790.5q-41 -34.5 -106 -34.5q-56 0 -85.5 27.5t-29.5 71.5q0 8 2 24l2 13h44q-2 -14 -2 -20q0 -60 79 -60q91 0 105 80h45l-3 -14q-10 -53 -51 -87.5z" />
    <glyph glyph-name="uni012D" unicode="&#x12d;" horiz-adv-x="229" 
d="M196 546l-96 -546h-70l96 546h70zM279 646.5q-41 -34.5 -106 -34.5q-56 0 -85.5 27.5t-29.5 71.5q0 8 2 24l2 13h44q-2 -14 -2 -20q0 -60 79 -60q91 0 105 80h45l-3 -14q-10 -53 -51 -87.5z" />
    <glyph glyph-name="Iogonek" unicode="&#x12e;" horiz-adv-x="229" 
d="M-24 -67q-18 -20 -18 -44q0 -20 14.5 -30.5t39.5 -10.5q30 0 67 14l-9 -49q-37 -13 -75 -13q-42 0 -70 18t-28 55q0 87 131 142l5 2l120 682h70l-123 -699h-2l-62 -28q-42 -19 -60 -39z" />
    <glyph glyph-name="iogonek" unicode="&#x12f;" horiz-adv-x="229" 
d="M228.5 741q11.5 -11 11.5 -29q0 -26 -18 -44.5t-42 -18.5q-19 0 -31 11.5t-12 30.5q0 26 18 43.5t43 17.5q19 0 30.5 -11zM126 546h70l-96 -546h-2l-62 -28q-42 -19 -60 -39t-18 -44q0 -20 14.5 -30.5t39.5 -10.5q30 0 67 14l-9 -49q-37 -13 -75 -13q-42 0 -70 18t-28 55
q0 87 131 142l5 2z" />
    <glyph glyph-name="Idotaccent" unicode="&#x130;" horiz-adv-x="229" 
d="M223 699l-123 -699h-70l123 699h70zM168.5 770.5q-11.5 13.5 -8.5 32.5q4 19 20 32.5t35 13.5q16 0 27 -10.5t11 -26.5q0 -6 -1 -9q-3 -19 -18.5 -32.5t-34.5 -13.5t-30.5 13.5z" />
    <glyph glyph-name="dotlessi" unicode="&#x131;" horiz-adv-x="229" 
d="M196 546l-96 -546h-70l96 546h70z" />
    <glyph glyph-name="uni0136" unicode="&#x136;" horiz-adv-x="568" 
d="M227 350l268 -350h-92l-246 323l-57 -323h-70l123 699h70l-58 -328l362 328h89zM261 -52q2 -38 -3 -67q-11 -57 -38.5 -82t-71.5 -25l7 35q24 0 37 14t18 42l2 14h-42l12 69h79z" />
    <glyph glyph-name="uni0137" unicode="&#x137;" horiz-adv-x="480" 
d="M207 273l213 -273h-95l-182 244l-43 -244h-70l131 740h70l-78 -438l264 244h97zM221 -52q2 -38 -3 -67q-11 -57 -38.5 -82t-71.5 -25l7 35q24 0 37.5 14t18.5 42l2 14h-43l12 69h79z" />
    <glyph glyph-name="Lacute" unicode="&#x139;" horiz-adv-x="421" 
d="M110 55h251l-10 -55h-321l123 699h70zM405 851l-226 -119l9 54l228 128z" />
    <glyph glyph-name="lacute" unicode="&#x13a;" horiz-adv-x="229" 
d="M231 740l-131 -740h-70l131 740h70zM316 901l-226 -119l9 54l228 128z" />
    <glyph glyph-name="uni013B" unicode="&#x13b;" horiz-adv-x="421" 
d="M110 55h251l-10 -55h-321l123 699h70zM220 -72q0 -19 -4 -47q-10 -57 -37.5 -82t-72.5 -25l7 35q24 0 37.5 14t18.5 42l2 14h-43l12 69h79q1 -7 1 -20z" />
    <glyph glyph-name="uni013C" unicode="&#x13c;" horiz-adv-x="229" 
d="M231 740l-131 -740h-70l131 740h70zM93 -76q0 -26 -4 -43q-10 -56 -37.5 -81.5t-71.5 -25.5l6 35q47 0 56 56l2 14h-43l13 69h78q1 -8 1 -24z" />
    <glyph glyph-name="Lcaron" unicode="&#x13d;" horiz-adv-x="431" 
d="M110 55h251l-10 -55h-321l123 699h70zM415 614q-10 -53 -37 -78t-72 -25l7 36q47 0 55 52l5 24h-46l13 76h81q1 -49 -6 -85z" />
    <glyph glyph-name="lcaron" unicode="&#x13e;" horiz-adv-x="316" 
d="M231 740l-131 -740h-70l131 740h70zM374 655q-9 -54 -36.5 -78.5t-72.5 -24.5l6 36q25 0 38 12.5t18 38.5l4 25h-46l14 76h81q0 -49 -6 -85z" />
    <glyph glyph-name="Ldot" unicode="&#x13f;" horiz-adv-x="421" 
d="M153 699h70l-113 -644h251l-10 -55h-321zM304 316.5q-11 10.5 -11 26.5q0 6 1 9q3 19 19 32.5t35 13.5t30 -13.5t8 -32.5q-4 -19 -19.5 -32.5t-34.5 -13.5q-17 0 -28 10.5z" />
    <glyph glyph-name="ldot" unicode="&#x140;" horiz-adv-x="277" 
d="M161 740h70l-131 -740h-70zM234 333q-11 11 -11 27q0 21 16.5 37.5t38.5 16.5q16 0 27.5 -11t11.5 -27q0 -22 -17 -38t-39 -16q-16 0 -27 11z" />
    <glyph glyph-name="Lslash" unicode="&#x141;" horiz-adv-x="430" 
d="M377 55l-11 -55h-321l57 320l-92 -34l12 66l91 34l56 313h70l-50 -286l133 49l-12 -66l-133 -49l-51 -292h251z" />
    <glyph glyph-name="lslash" unicode="&#x142;" horiz-adv-x="239" 
d="M256 432l-81 -33l-71 -399h-70l65 368l-80 -33l11 66l81 32l54 307h70l-49 -277l82 33z" />
    <glyph glyph-name="Nacute" unicode="&#x143;" horiz-adv-x="686" 
d="M557 0h-70l-283 588l-104 -588h-70l123 699h70l284 -587l103 587h70zM536 851l-226 -119l9 54l228 128z" />
    <glyph glyph-name="nacute" unicode="&#x144;" horiz-adv-x="633" 
d="M519.5 510.5q50.5 -45.5 50.5 -132.5q0 -32 -5 -58l-57 -320h-69l55 312q4 23 4 49q0 66 -36 100t-101 34q-79 0 -135 -50t-73 -147v3l-53 -301h-70l96 546h70l-17 -94q35 50 89 77t117 27q84 0 134.5 -45.5zM477 707l-226 -119l9 54l228 128z" />
    <glyph glyph-name="uni0145" unicode="&#x145;" horiz-adv-x="686" 
d="M557 0h-70l-283 588l-104 -588h-70l123 699h70l284 -587l103 587h70zM322 -76q0 -26 -4 -43q-10 -56 -37.5 -81.5t-71.5 -25.5l7 35q46 0 55 56l2 14h-43l13 69h78q1 -8 1 -24z" />
    <glyph glyph-name="uni0146" unicode="&#x146;" horiz-adv-x="633" 
d="M519.5 510.5q50.5 -45.5 50.5 -132.5q0 -32 -5 -58l-57 -320h-69l55 312q4 23 4 49q0 66 -36 100t-101 34q-79 0 -135 -50t-73 -147v3l-53 -301h-70l96 546h70l-17 -94q35 50 89 77t117 27q84 0 134.5 -45.5zM298 -52q2 -38 -3 -67q-11 -57 -38.5 -82t-71.5 -25l7 35
q24 0 37 14t18 42l2 14h-42l12 69h79z" />
    <glyph glyph-name="Ncaron" unicode="&#x147;" horiz-adv-x="686" 
d="M557 0h-70l-283 588l-104 -588h-70l123 699h70l284 -587l103 587h70zM574 832l-148 -82l-120 82l11 57l119 -84l148 84z" />
    <glyph glyph-name="ncaron" unicode="&#x148;" horiz-adv-x="633" 
d="M519.5 510.5q50.5 -45.5 50.5 -132.5q0 -32 -5 -58l-57 -320h-69l55 312q4 23 4 49q0 66 -36 100t-101 34q-79 0 -135 -50t-73 -147v3l-53 -301h-70l96 546h70l-17 -94q35 50 89 77t117 27q84 0 134.5 -45.5zM515 688l-148 -82l-120 82l11 57l119 -84l148 84z" />
    <glyph glyph-name="Omacron" unicode="&#x14c;" horiz-adv-x="788" 
d="M193.5 29q-65.5 36 -101.5 101.5t-36 149.5q0 117 54 215t148 155t209 57q86 0 151.5 -36t101 -101.5t35.5 -150.5q0 -117 -53.5 -214.5t-147.5 -154.5t-209 -57q-86 0 -151.5 36zM524 105q75 49 117 131.5t42 178.5q0 106 -61.5 167t-165.5 61q-94 0 -168.5 -49
t-116.5 -131.5t-42 -177.5q0 -106 61.5 -167.5t164.5 -61.5q94 0 169 49zM666 848l-9 -54h-340l10 54h339z" />
    <glyph glyph-name="omacron" unicode="&#x14d;" horiz-adv-x="642" 
d="M150 19.5q-52 27.5 -80.5 78t-28.5 118.5q0 92 42 169.5t117 123t167 45.5q68 0 120 -27.5t81 -78t29 -118.5q0 -93 -43 -170t-117.5 -122.5t-166.5 -45.5q-68 0 -120 27.5zM405.5 89q56.5 38 88 101t31.5 136q0 82 -47.5 125t-120.5 43q-71 0 -126.5 -38t-86.5 -101
t-31 -136q0 -81 47 -124.5t118 -43.5t127.5 38zM564 708l-9 -54h-340l10 54h339z" />
    <glyph glyph-name="uni014E" unicode="&#x14e;" horiz-adv-x="788" 
d="M193.5 29q-65.5 36 -101.5 101.5t-36 149.5q0 117 54 215t148 155t209 57q86 0 151.5 -36t101 -101.5t35.5 -150.5q0 -117 -53.5 -214.5t-147.5 -154.5t-209 -57q-86 0 -151.5 36zM524 105q75 49 117 131.5t42 178.5q0 106 -61.5 167t-165.5 61q-94 0 -168.5 -49
t-116.5 -131.5t-42 -177.5q0 -106 61.5 -167.5t164.5 -61.5q94 0 169 49zM587 794.5q-41 -34.5 -106 -34.5q-56 0 -85.5 27.5t-29.5 71.5q0 8 2 24l2 13h44q-2 -14 -2 -20q0 -60 79 -60q91 0 105 80h45l-3 -14q-10 -53 -51 -87.5z" />
    <glyph glyph-name="uni014F" unicode="&#x14f;" horiz-adv-x="642" 
d="M150 19.5q-52 27.5 -80.5 78t-28.5 118.5q0 92 42 169.5t117 123t167 45.5q68 0 120 -27.5t81 -78t29 -118.5q0 -93 -43 -170t-117.5 -122.5t-166.5 -45.5q-68 0 -120 27.5zM405.5 89q56.5 38 88 101t31.5 136q0 82 -47.5 125t-120.5 43q-71 0 -126.5 -38t-86.5 -101
t-31 -136q0 -81 47 -124.5t118 -43.5t127.5 38zM485 654.5q-41 -34.5 -106 -34.5q-56 0 -85.5 27.5t-29.5 71.5q0 8 2 24l2 13h44q-2 -14 -2 -20q0 -60 79 -60q91 0 105 80h45l-3 -14q-10 -53 -51 -87.5z" />
    <glyph glyph-name="Ohungarumlaut" unicode="&#x150;" horiz-adv-x="788" 
d="M193.5 29q-65.5 36 -101.5 101.5t-36 149.5q0 117 54 215t148 155t209 57q86 0 151.5 -36t101 -101.5t35.5 -150.5q0 -117 -53.5 -214.5t-147.5 -154.5t-209 -57q-86 0 -151.5 36zM524 105q75 49 117 131.5t42 178.5q0 106 -61.5 167t-165.5 61q-94 0 -168.5 -49
t-116.5 -131.5t-42 -177.5q0 -106 61.5 -167.5t164.5 -61.5q94 0 169 49zM426 749h-49l90 139h63zM565 749h-49l100 139h63z" />
    <glyph glyph-name="ohungarumlaut" unicode="&#x151;" horiz-adv-x="642" 
d="M150 19.5q-52 27.5 -80.5 78t-28.5 118.5q0 92 42 169.5t117 123t167 45.5q68 0 120 -27.5t81 -78t29 -118.5q0 -93 -43 -170t-117.5 -122.5t-166.5 -45.5q-68 0 -120 27.5zM405.5 89q56.5 38 88 101t31.5 136q0 82 -47.5 125t-120.5 43q-71 0 -126.5 -38t-86.5 -101
t-31 -136q0 -81 47 -124.5t118 -43.5t127.5 38zM324 609h-49l90 139h63zM463 609h-49l100 139h63z" />
    <glyph glyph-name="OE" unicode="&#x152;" horiz-adv-x="1093" 
d="M757 379h265l-10 -55h-265l-47 -268h296l-11 -56h-365l31 171q-49 -84 -132 -131t-179 -47q-84 0 -149 35.5t-101 100.5t-36 149q0 28 7 72q18 103 77.5 184.5t146 127t180.5 45.5q96 0 162.5 -47t86.5 -130l30 169h365l-10 -56h-296zM127 286q0 -70 28.5 -122t80 -80
t119.5 -28q78 0 147 36t116.5 103t62.5 155q6 35 6 66q0 70 -28.5 121t-80.5 78.5t-119 27.5q-78 0 -146.5 -36t-116 -102t-63.5 -155q-6 -34 -6 -64z" />
    <glyph glyph-name="oe" unicode="&#x153;" horiz-adv-x="1096" 
d="M956 527.5q49 -26.5 74.5 -72.5t25.5 -105q0 -27 -4 -48q-6 -33 -14 -54h-450q-3 -19 -3 -37q0 -76 45 -118t116 -42q69 0 121.5 33t76.5 89h75q-34 -80 -109 -130.5t-174 -50.5q-81 0 -134.5 40t-69.5 112q-43 -72 -113 -112t-151 -40q-103 0 -165.5 59t-62.5 160
q0 29 6 62q15 85 62.5 148.5t115.5 98t145 34.5q81 0 136 -39.5t73 -111.5q41 72 109.5 111.5t150.5 39.5q69 0 118 -26.5zM525 326q0 82 -47.5 125t-120.5 43q-53 0 -103.5 -24.5t-87 -74.5t-48.5 -122q-5 -32 -5 -54q0 -81 46.5 -124.5t118.5 -43.5q54 0 104.5 25t88 75
t49.5 122q5 32 5 53zM985 346q0 71 -45 109.5t-115 38.5q-80 0 -144 -51t-85 -145h384q5 28 5 48z" />
    <glyph glyph-name="Racute" unicode="&#x154;" horiz-adv-x="587" 
d="M518.5 655q51.5 -44 51.5 -118q0 -13 -4 -41q-13 -76 -66 -129.5t-141 -69.5l127 -297h-84l-121 292h-130l-51 -292h-70l123 699h211q103 0 154.5 -44zM496 532q0 53 -35 82t-108 29h-140l-52 -295h141q83 0 131 40t60 108q3 20 3 36zM499 851l-226 -119l9 54l228 128z
" />
    <glyph glyph-name="racute" unicode="&#x155;" horiz-adv-x="362" 
d="M263 525q53 31 123 31l-13 -73h-20q-72 0 -124 -37t-72 -122l-57 -324h-70l96 546h70l-19 -109q33 57 86 88zM389 707l-226 -119l9 54l228 128z" />
    <glyph glyph-name="uni0156" unicode="&#x156;" horiz-adv-x="587" 
d="M518.5 655q51.5 -44 51.5 -118q0 -13 -4 -41q-13 -76 -66 -129.5t-141 -69.5l127 -297h-84l-121 292h-130l-51 -292h-70l123 699h211q103 0 154.5 -44zM496 532q0 53 -35 82t-108 29h-140l-52 -295h141q83 0 131 40t60 108q3 20 3 36zM270 -52q1 -33 -4 -67
q-10 -56 -37.5 -81.5t-71.5 -25.5l7 35q23 0 36.5 14t18.5 42l2 14h-42l12 69h79z" />
    <glyph glyph-name="uni0157" unicode="&#x157;" horiz-adv-x="362" 
d="M263 525q53 31 123 31l-13 -73h-20q-72 0 -124 -37t-72 -122l-57 -324h-70l96 546h70l-19 -109q33 57 86 88zM92 -52q1 -7 1 -20q0 -19 -4 -47q-10 -56 -37.5 -81.5t-71.5 -25.5l6 35q24 0 37.5 14t18.5 42l2 14h-43l12 69h79z" />
    <glyph glyph-name="Rcaron" unicode="&#x158;" horiz-adv-x="587" 
d="M518.5 655q51.5 -44 51.5 -118q0 -13 -4 -41q-13 -76 -66 -129.5t-141 -69.5l127 -297h-84l-121 292h-130l-51 -292h-70l123 699h211q103 0 154.5 -44zM496 532q0 53 -35 82t-108 29h-140l-52 -295h141q83 0 131 40t60 108q3 20 3 36zM537 832l-148 -82l-120 82l11 57
l119 -84l148 84z" />
    <glyph glyph-name="rcaron" unicode="&#x159;" horiz-adv-x="362" 
d="M263 525q53 31 123 31l-13 -73h-20q-72 0 -124 -37t-72 -122l-57 -324h-70l96 546h70l-19 -109q33 57 86 88zM427 688l-148 -82l-120 82l11 57l119 -84l148 84z" />
    <glyph glyph-name="Sacute" unicode="&#x15a;" horiz-adv-x="566" 
d="M142.5 14q-47.5 21 -73.5 59t-26 87q0 13 1 20h69q-2 -32 11.5 -61.5t47 -49t86.5 -19.5q74 0 118 37t44 100q0 38 -20.5 63.5t-50.5 42t-82 37.5q-61 24 -97 44.5t-59.5 56.5t-19.5 92q2 54 32.5 95.5t83 65t119.5 23.5q66 0 113.5 -22.5t71 -61.5t20.5 -86h-73
q2 27 -12.5 53t-46 42.5t-77.5 16.5q-71 0 -116 -34.5t-45 -93.5q0 -35 20 -59t49 -40t80 -37q59 -24 95.5 -45t62 -56t25.5 -88q0 -13 -1 -20q-4 -51 -34 -93t-82.5 -66t-122.5 -24q-63 0 -110.5 21zM479 851l-226 -119l9 54l228 128z" />
    <glyph glyph-name="sacute" unicode="&#x15b;" horiz-adv-x="510" 
d="M77 30.5q-52 38.5 -52 105.5q0 12 1 18h68q-4 -48 28 -77t94 -29q63 0 101 26.5t38 70.5q0 26 -16 44t-39.5 29.5t-65.5 26.5q-52 19 -83.5 35.5t-54 46t-22.5 74.5t26 80t71.5 54t103.5 19q81 0 132.5 -40t51.5 -106q0 -14 -1 -21h-66q1 4 1 13q0 44 -34.5 71t-88.5 27
t-89.5 -25.5t-35.5 -68.5q0 -29 17 -48.5t42 -31.5t67 -28q50 -19 80.5 -35t51.5 -44t21 -70q0 -71 -59 -113t-153 -42q-83 0 -135 38.5zM423 707l-226 -119l9 54l228 128z" />
    <glyph glyph-name="uni015E" unicode="&#x15e;" horiz-adv-x="566" 
d="M458 537q2 27 -12.5 53t-46 42.5t-77.5 16.5q-71 0 -116 -34.5t-45 -93.5q0 -35 20 -59t49 -40t80 -37q59 -24 95.5 -45t62 -56t25.5 -88q0 -13 -1 -20q-4 -50 -32.5 -91t-79 -65.5t-117.5 -26.5l-11 -60q54 2 84 -18t30 -57q0 -6 -2 -18q-8 -45 -44.5 -71.5t-89.5 -26.5
h-100l8 47h86q73 0 80 51q1 4 1 11q0 37 -63 37h-47l19 107q-79 10 -125 54t-46 110q0 14 1 21h69q-2 -32 11.5 -61.5t47 -49t86.5 -19.5q74 0 118 37t44 100q0 38 -20.5 63.5t-50.5 42t-82 37.5q-61 24 -97 44.5t-59.5 56.5t-19.5 92q2 54 32.5 95.5t83 65t119.5 23.5
q66 0 113.5 -22.5t71 -61.5t20.5 -86h-73z" />
    <glyph glyph-name="uni015F" unicode="&#x15f;" horiz-adv-x="510" 
d="M392 387q1 4 1 13q0 44 -34.5 71t-88.5 27t-89.5 -25.5t-35.5 -68.5q0 -29 17 -48.5t42 -31.5t67 -28q50 -19 80.5 -35t51.5 -44t21 -70q0 -66 -53 -107.5t-138 -46.5l-11 -60q54 2 84 -18t30 -57q0 -6 -2 -18q-8 -45 -44.5 -71.5t-89.5 -26.5h-100l8 47h86q73 0 80 51
q1 4 1 11q0 37 -63 37h-47l19 105q-71 6 -115 44t-44 99q0 12 1 18h68q-4 -48 28 -77t94 -29q63 0 101 26.5t38 70.5q0 26 -16 44t-39.5 29.5t-65.5 26.5q-52 19 -83.5 35.5t-54 46t-22.5 74.5t26 80t71.5 54t103.5 19q81 0 132.5 -40t51.5 -106q0 -14 -1 -21h-66z" />
    <glyph glyph-name="Scaron" unicode="&#x160;" horiz-adv-x="566" 
d="M142.5 14q-47.5 21 -73.5 59t-26 87q0 13 1 20h69q-2 -32 11.5 -61.5t47 -49t86.5 -19.5q74 0 118 37t44 100q0 38 -20.5 63.5t-50.5 42t-82 37.5q-61 24 -97 44.5t-59.5 56.5t-19.5 92q2 54 32.5 95.5t83 65t119.5 23.5q66 0 113.5 -22.5t71 -61.5t20.5 -86h-73
q2 27 -12.5 53t-46 42.5t-77.5 16.5q-71 0 -116 -34.5t-45 -93.5q0 -35 20 -59t49 -40t80 -37q59 -24 95.5 -45t62 -56t25.5 -88q0 -13 -1 -20q-4 -51 -34 -93t-82.5 -66t-122.5 -24q-63 0 -110.5 21zM517 832l-148 -82l-120 82l11 57l119 -84l148 84z" />
    <glyph glyph-name="scaron" unicode="&#x161;" horiz-adv-x="510" 
d="M77 30.5q-52 38.5 -52 105.5q0 12 1 18h68q-4 -48 28 -77t94 -29q63 0 101 26.5t38 70.5q0 26 -16 44t-39.5 29.5t-65.5 26.5q-52 19 -83.5 35.5t-54 46t-22.5 74.5t26 80t71.5 54t103.5 19q81 0 132.5 -40t51.5 -106q0 -14 -1 -21h-66q1 4 1 13q0 44 -34.5 71t-88.5 27
t-89.5 -25.5t-35.5 -68.5q0 -29 17 -48.5t42 -31.5t67 -28q50 -19 80.5 -35t51.5 -44t21 -70q0 -71 -59 -113t-153 -42q-83 0 -135 38.5zM461 688l-148 -82l-120 82l11 57l119 -84l148 84z" />
    <glyph glyph-name="uni0162" unicode="&#x162;" horiz-adv-x="520" 
d="M563 699l-10 -56h-195l-113 -643h-8l-13 -67q54 2 84 -18t30 -57q0 -6 -2 -18q-8 -45 -44.5 -71.5t-89.5 -26.5h-100l8 47h86q73 0 80 51q1 4 1 11q0 37 -63 37h-47l20 112h-12l113 643h-194l10 56h459z" />
    <glyph glyph-name="uni0163" unicode="&#x163;" horiz-adv-x="356" 
d="M146 148q-3 -18 -3 -31q0 -32 17.5 -44.5t57.5 -12.5h64l-11 -60h-75q-14 0 -20 1l-12 -68q54 2 84 -18t30 -57q0 -6 -2 -18q-8 -45 -45 -71.5t-90 -26.5h-99l8 47h86q37 0 56 12.5t24 38.5q1 4 1 11q0 37 -63 37h-47l22 122q-57 20 -57 92q0 23 4 46l60 339h-76l11 59
h76l24 137h70l-24 -137h151l-11 -59h-151z" />
    <glyph glyph-name="Tcaron" unicode="&#x164;" horiz-adv-x="520" 
d="M563 699l-10 -56h-195l-113 -643h-70l113 643h-194l10 56h459zM491 832l-148 -82l-120 82l11 57l119 -84l148 84z" />
    <glyph glyph-name="tcaron" unicode="&#x165;" horiz-adv-x="359" 
d="M410 763q0 -49 -5 -80q-9 -49 -36 -70.5t-72 -21.5l6 36q48 0 54 38l4 22h-46l14 76h81zM217 546h151l-11 -59h-151l-60 -339q-3 -18 -3 -31q0 -32 17.5 -44.5t57.5 -12.5h64l-11 -60h-75q-62 0 -93 24t-31 79q0 22 4 45l60 339h-76l11 59h76l24 137h70z" />
    <glyph glyph-name="Utilde" unicode="&#x168;" horiz-adv-x="661" 
d="M221 699l-78 -439q-6 -31 -6 -58q0 -75 41 -110.5t114 -35.5q85 0 142.5 50t76.5 154l78 439h70l-78 -439q-23 -132 -105.5 -199.5t-195.5 -67.5q-97 0 -155 50t-58 149q0 32 6 68l78 439h70zM322.5 819q27.5 24 63.5 24q18 0 29.5 -6t27.5 -19q13 -11 23 -16.5t24 -5.5
q17 0 31 11.5t20 33.5h43q-13 -44 -41.5 -68.5t-64.5 -24.5q-19 0 -31.5 6.5t-27.5 19.5q-12 10 -22 15.5t-23 5.5q-37 0 -50 -45h-43q14 45 41.5 69z" />
    <glyph glyph-name="utilde" unicode="&#x169;" horiz-adv-x="633" 
d="M599 546l-96 -546h-70l17 96q-34 -51 -88 -78t-116 -27q-84 0 -135 45.5t-51 132.5q0 32 5 58l56 319h69l-55 -311q-4 -23 -4 -48q0 -66 36.5 -100.5t101.5 -34.5q76 0 131 46.5t74 136.5l55 311h70zM283.5 675q27.5 24 63.5 24q18 0 29.5 -6t27.5 -19q13 -11 23 -16.5
t24 -5.5q17 0 31 11.5t20 33.5h43q-13 -44 -41.5 -68.5t-64.5 -24.5q-19 0 -31.5 6.5t-27.5 19.5q-12 10 -22 15.5t-23 5.5q-37 0 -50 -45h-43q14 45 41.5 69z" />
    <glyph glyph-name="Umacron" unicode="&#x16a;" horiz-adv-x="661" 
d="M221 699l-78 -439q-6 -31 -6 -58q0 -75 41 -110.5t114 -35.5q85 0 142.5 50t76.5 154l78 439h70l-78 -439q-23 -132 -105.5 -199.5t-195.5 -67.5q-97 0 -155 50t-58 149q0 32 6 68l78 439h70zM599 844l-9 -54h-340l10 54h339z" />
    <glyph glyph-name="umacron" unicode="&#x16b;" horiz-adv-x="633" 
d="M599 546l-96 -546h-70l17 96q-34 -51 -88 -78t-116 -27q-84 0 -135 45.5t-51 132.5q0 32 5 58l56 319h69l-55 -311q-4 -23 -4 -48q0 -66 36.5 -100.5t101.5 -34.5q76 0 131 46.5t74 136.5l55 311h70zM560 700l-9 -54h-340l10 54h339z" />
    <glyph glyph-name="Ubreve" unicode="&#x16c;" horiz-adv-x="661" 
d="M221 699l-78 -439q-6 -31 -6 -58q0 -75 41 -110.5t114 -35.5q85 0 142.5 50t76.5 154l78 439h70l-78 -439q-23 -132 -105.5 -199.5t-195.5 -67.5q-97 0 -155 50t-58 149q0 32 6 68l78 439h70zM520 790.5q-41 -34.5 -106 -34.5q-56 0 -85.5 27.5t-29.5 71.5q0 8 2 24l2 13
h44q-2 -14 -2 -20q0 -60 79 -60q91 0 105 80h45l-3 -14q-10 -53 -51 -87.5z" />
    <glyph glyph-name="ubreve" unicode="&#x16d;" horiz-adv-x="633" 
d="M599 546l-96 -546h-70l17 96q-34 -51 -88 -78t-116 -27q-84 0 -135 45.5t-51 132.5q0 32 5 58l56 319h69l-55 -311q-4 -23 -4 -48q0 -66 36.5 -100.5t101.5 -34.5q76 0 131 46.5t74 136.5l55 311h70zM481 646.5q-41 -34.5 -106 -34.5q-56 0 -85.5 27.5t-29.5 71.5
q0 8 2 24l2 13h44q-2 -14 -2 -20q0 -60 79 -60q91 0 105 80h45l-3 -14q-10 -53 -51 -87.5z" />
    <glyph glyph-name="Uring" unicode="&#x16e;" horiz-adv-x="661" 
d="M221 699l-78 -439q-6 -31 -6 -58q0 -75 41 -110.5t114 -35.5q85 0 142.5 50t76.5 154l78 439h70l-78 -439q-23 -132 -105.5 -199.5t-195.5 -67.5q-97 0 -155 50t-58 149q0 32 6 68l78 439h70zM374 926.5q34 27.5 76 27.5q37 0 60.5 -21.5t23.5 -57.5t-17 -63.5
t-44.5 -42.5t-58.5 -15q-37 0 -61 21.5t-24 58.5q0 6 2 20q9 45 43 72.5zM479 902q-14 13 -37 13q-26 0 -45.5 -16.5t-24.5 -44.5q-1 -5 -1 -13q0 -22 13.5 -35t36.5 -13q29 0 50.5 21t21.5 53q0 22 -14 35z" />
    <glyph glyph-name="uring" unicode="&#x16f;" horiz-adv-x="633" 
d="M599 546l-96 -546h-70l17 96q-34 -51 -88 -78t-116 -27q-84 0 -135 45.5t-51 132.5q0 32 5 58l56 319h69l-55 -311q-4 -23 -4 -48q0 -66 36.5 -100.5t101.5 -34.5q76 0 131 46.5t74 136.5l55 311h70zM335 782.5q34 27.5 76 27.5q37 0 60.5 -21.5t23.5 -57.5t-17 -63.5
t-44.5 -42.5t-58.5 -15q-37 0 -61 21.5t-24 58.5q0 6 2 20q9 45 43 72.5zM440 758q-14 13 -37 13q-26 0 -45.5 -16.5t-24.5 -44.5q-1 -5 -1 -13q0 -22 13.5 -35t36.5 -13q29 0 50.5 21t21.5 53q0 22 -14 35z" />
    <glyph glyph-name="Uhungarumlaut" unicode="&#x170;" horiz-adv-x="661" 
d="M221 699l-78 -439q-6 -31 -6 -58q0 -75 41 -110.5t114 -35.5q85 0 142.5 50t76.5 154l78 439h70l-78 -439q-23 -132 -105.5 -199.5t-195.5 -67.5q-97 0 -155 50t-58 149q0 32 6 68l78 439h70zM359 745h-49l90 139h63zM498 745h-49l100 139h63z" />
    <glyph glyph-name="uhungarumlaut" unicode="&#x171;" horiz-adv-x="633" 
d="M599 546l-96 -546h-70l17 96q-34 -51 -88 -78t-116 -27q-84 0 -135 45.5t-51 132.5q0 32 5 58l56 319h69l-55 -311q-4 -23 -4 -48q0 -66 36.5 -100.5t101.5 -34.5q76 0 131 46.5t74 136.5l55 311h70zM320 601h-49l90 139h63zM459 601h-49l100 139h63z" />
    <glyph glyph-name="Uogonek" unicode="&#x172;" horiz-adv-x="661" 
d="M659 699l-78 -439q-19 -111 -81.5 -176.5t-151.5 -83.5l-63 -29q-42 -19 -60 -39t-18 -44q0 -20 14.5 -30.5t39.5 -10.5q30 0 67 14l-9 -49q-37 -13 -75 -13q-42 0 -70 18t-28 55q0 72 92 124q-79 10 -125.5 59.5t-46.5 136.5q0 26 7 68l78 439h70l-78 -439
q-6 -31 -6 -58q0 -75 41 -110.5t114 -35.5q85 0 142.5 50t76.5 154l78 439h70z" />
    <glyph glyph-name="uogonek" unicode="&#x173;" horiz-adv-x="633" 
d="M503 0v-1l-64 -29q-42 -19 -60 -39t-18 -44q0 -20 14.5 -30.5t39.5 -10.5q30 0 67 14l-9 -49q-37 -13 -75 -13q-42 0 -70 18t-28 55q0 87 131 142l5 2l14 81q-34 -51 -88 -78t-116 -27q-84 0 -135 45.5t-51 132.5q0 32 5 58l56 319h69l-55 -311q-4 -23 -4 -48
q0 -66 36.5 -100.5t101.5 -34.5q76 0 131 46.5t74 136.5l55 311h70z" />
    <glyph glyph-name="Wcircumflex" unicode="&#x174;" horiz-adv-x="955" 
d="M1002 699l-322 -699h-78l-70 594l-285 -594l-77 -1l-70 700h76l51 -609l287 609h79l65 -611l268 611h76zM547 848l-149 -84l10 57l149 82l119 -82l-10 -57z" />
    <glyph glyph-name="wcircumflex" unicode="&#x175;" horiz-adv-x="815" 
d="M846 546l-267 -546h-70l-70 457l-233 -457h-70l-75 546h72l53 -472l235 472h71l67 -473l218 473h69zM480 691l-149 -84l10 57l149 82l119 -82l-10 -57z" />
    <glyph glyph-name="Ycircumflex" unicode="&#x176;" horiz-adv-x="564" 
d="M616 699l-300 -427l-48 -272h-70l48 272l-150 427h79l117 -363l245 363h79zM380 835l-149 -84l10 57l149 82l119 -82l-10 -57z" />
    <glyph glyph-name="ycircumflex" unicode="&#x177;" horiz-adv-x="545" 
d="M139 546l103 -463l261 463h73l-465 -803h-74l152 261l-128 542h78zM345 691l-149 -84l10 57l149 82l119 -82l-10 -57z" />
    <glyph glyph-name="Ydieresis" unicode="&#x178;" horiz-adv-x="564" 
d="M616 699l-300 -427l-48 -272h-70l48 272l-150 427h79l117 -363l245 363h79zM264.5 778q-10.5 11 -10.5 27q0 22 16 38t38 16q17 0 27.5 -10.5t10.5 -27.5q0 -22 -16.5 -38t-37.5 -16q-17 0 -27.5 11zM418.5 778q-10.5 11 -10.5 27q0 22 16.5 38t38.5 16q16 0 26.5 -10.5
t10.5 -26.5q0 -22 -16.5 -38.5t-37.5 -16.5q-17 0 -27.5 11z" />
    <glyph glyph-name="Zacute" unicode="&#x179;" horiz-adv-x="525" 
d="M86 62h357l-11 -62h-439l10 56l454 581h-346l12 62h428l-10 -56zM456 851l-226 -119l9 54l228 128z" />
    <glyph glyph-name="zacute" unicode="&#x17a;" horiz-adv-x="441" 
d="M78 58h286l-11 -58h-366l11 58l356 430h-276l11 58h356l-11 -58zM389 707l-226 -119l9 54l228 128z" />
    <glyph glyph-name="Zdotaccent" unicode="&#x17b;" horiz-adv-x="525" 
d="M86 62h357l-11 -62h-439l10 56l454 581h-346l12 62h428l-10 -56zM316.5 770.5q-11.5 13.5 -8.5 32.5q4 19 20 32.5t35 13.5q16 0 27 -10.5t11 -26.5q0 -6 -1 -9q-3 -19 -18.5 -32.5t-34.5 -13.5t-30.5 13.5z" />
    <glyph glyph-name="zdotaccent" unicode="&#x17c;" horiz-adv-x="441" 
d="M78 58h286l-11 -58h-366l11 58l356 430h-276l11 58h356l-11 -58zM249.5 626.5q-11.5 13.5 -8.5 32.5q4 19 20 32.5t35 13.5q16 0 27 -10.5t11 -26.5q0 -6 -1 -9q-3 -19 -18.5 -32.5t-34.5 -13.5t-30.5 13.5z" />
    <glyph glyph-name="Zcaron" unicode="&#x17d;" horiz-adv-x="525" 
d="M86 62h357l-11 -62h-439l10 56l454 581h-346l12 62h428l-10 -56zM493 832l-148 -82l-120 82l11 57l119 -84l148 84z" />
    <glyph glyph-name="zcaron" unicode="&#x17e;" horiz-adv-x="441" 
d="M78 58h286l-11 -58h-366l11 58l356 430h-276l11 58h356l-11 -58zM426 688l-148 -82l-120 82l11 57l119 -84l148 84z" />
    <glyph glyph-name="uni018F" unicode="&#x18f;" horiz-adv-x="752" 
d="M591 671.5q63 -35.5 97.5 -98.5t34.5 -144q0 -118 -51.5 -218t-144 -159t-209.5 -59q-79 0 -140.5 31t-95.5 89.5t-34 137.5q0 58 19 125h575l3 20q1 10 1 29q0 100 -58 159t-154 59q-87 0 -159 -44.5t-108 -122.5h-81q48 106 144 168.5t215 62.5q83 0 146 -35.5z
M466.5 89q64.5 33 108 91t58.5 131h-507q-6 -31 -6 -61q0 -91 55.5 -142.5t151.5 -51.5q75 0 139.5 33z" />
    <glyph glyph-name="florin" unicode="&#x192;" horiz-adv-x="332" 
d="M299.5 679q-35.5 -25 -50.5 -80l-15 -53h127l-16 -58h-127l-152 -538q-19 -67 -58 -98t-105 -31h-26l17 58h21q32 0 50.5 15.5t30.5 55.5l152 538h-76l16 58h76l15 53q24 85 81.5 124.5t153.5 39.5l-16 -59q-63 0 -98.5 -25z" />
    <glyph glyph-name="uni01FC" unicode="&#x1fc;" horiz-adv-x="882" 
d="M592 644l-47 -264h265l-9 -56h-265l-47 -268h294l-10 -56h-365l30 166h-274l-126 -166h-77l530 700h406l-10 -56h-295zM522 640l-316 -418h242zM727 862l-226 -119l9 54l228 128z" />
    <glyph glyph-name="uni01FD" unicode="&#x1fd;" horiz-adv-x="1110" 
d="M971 527.5q48 -26.5 72.5 -72.5t24.5 -104q0 -26 -4 -49q-6 -33 -14 -54h-460q-2 -22 -2 -31q0 -54 23 -91.5t61 -56t83 -18.5q72 0 125.5 33t77.5 89h75q-34 -80 -107 -130.5t-170 -50.5q-74 0 -126.5 35.5t-65.5 98.5l-23 -126h-66l23 126q-38 -60 -101 -97t-139 -37
q-99 0 -158.5 59.5t-59.5 160.5q0 29 6 62q15 84 60 147.5t111.5 98t142.5 34.5q75 0 123.5 -35t66.5 -96l22 123h66l-22 -124q42 66 104 99t135 33q68 0 116 -26.5zM998 346q0 71 -46 109.5t-118 38.5q-52 0 -100.5 -22.5t-84.5 -66.5t-50 -105h394q5 28 5 46zM528 323
q0 78 -47 124t-122 46q-58 0 -108.5 -26t-85.5 -75.5t-47 -117.5q-5 -30 -5 -51q0 -79 46.5 -124.5t121.5 -45.5q56 0 107.5 27t87 77t47.5 116q5 28 5 50zM805 707l-226 -119l9 54l228 128z" />
    <glyph glyph-name="uni0218" unicode="&#x218;" horiz-adv-x="572" 
d="M142.5 14q-47.5 21 -73.5 59t-26 87q0 13 1 20h69q-2 -32 11.5 -61.5t47 -49t86.5 -19.5q74 0 118 37t44 100q0 38 -20.5 63.5t-50.5 42t-82 37.5q-61 24 -97 44.5t-59.5 56.5t-19.5 92q2 54 32.5 95.5t83 65t119.5 23.5q66 0 113.5 -22.5t71 -61.5t20.5 -86h-73
q2 27 -12.5 53t-46 42.5t-77.5 16.5q-71 0 -116 -34.5t-45 -93.5q0 -35 20 -59t49 -40t80 -37q59 -24 95.5 -45t62 -56t25.5 -88q0 -13 -1 -20q-4 -51 -34 -93t-82.5 -66t-122.5 -24q-63 0 -110.5 21zM277 -76q0 -26 -4 -43q-10 -57 -37.5 -82t-71.5 -25l6 35q47 0 56 56
l2 14h-42l12 69h78q1 -8 1 -24z" />
    <glyph glyph-name="uni0219" unicode="&#x219;" horiz-adv-x="510" 
d="M77 30.5q-52 38.5 -52 105.5q0 12 1 18h68q-4 -48 28 -77t94 -29q63 0 101 26.5t38 70.5q0 26 -16 44t-39.5 29.5t-65.5 26.5q-52 19 -83.5 35.5t-54 46t-22.5 74.5t26 80t71.5 54t103.5 19q81 0 132.5 -40t51.5 -106q0 -14 -1 -21h-66q1 4 1 13q0 44 -34.5 71t-88.5 27
t-89.5 -25.5t-35.5 -68.5q0 -29 17 -48.5t42 -31.5t67 -28q50 -19 80.5 -35t51.5 -44t21 -70q0 -71 -59 -113t-153 -42q-83 0 -135 38.5zM241 -119q-19 -107 -110 -107l7 35q24 0 37 14t18 42l3 14h-43l12 69h79q2 -38 -3 -67z" />
    <glyph glyph-name="uni021A" unicode="&#x21a;" horiz-adv-x="520" 
d="M563 699l-10 -56h-195l-113 -643h-70l113 643h-194l10 56h459zM234 -119q-10 -56 -37.5 -81.5t-71.5 -25.5l7 35q46 0 55 56l2 14h-42l12 69h79q1 -33 -4 -67z" />
    <glyph glyph-name="uni021B" unicode="&#x21b;" horiz-adv-x="356" 
d="M146 148q-3 -18 -3 -31q0 -32 17.5 -44.5t57.5 -12.5h64l-11 -60h-75q-62 0 -93 24t-31 79q0 22 4 45l60 339h-76l11 59h76l24 137h70l-24 -137h151l-11 -59h-151zM173 -52q2 -38 -3 -67q-10 -57 -37.5 -82t-72.5 -25l7 35q24 0 37 14t18 42l2 14h-42l12 69h79z" />
    <glyph glyph-name="uni0259" unicode="&#x259;" horiz-adv-x="622" 
d="M520.5 495.5q61.5 -58.5 61.5 -159.5q0 -30 -6 -63q-15 -85 -60.5 -149t-112.5 -98t-145 -34q-69 0 -118 26.5t-74.5 72.5t-25.5 105q0 27 4 48q6 30 12 54h453q3 20 3 36q0 77 -46.5 119t-118.5 42q-69 0 -121 -33t-76 -89h-75q34 80 108.5 130.5t173.5 50.5
q102 0 163.5 -58.5zM369 74q47 22 82 66t48 106h-383q-5 -28 -5 -47q0 -71 45.5 -109t114.5 -38q51 0 98 22z" />
    <glyph glyph-name="uni02BC" unicode="&#x2bc;" horiz-adv-x="197" 
d="M173 699h81l-126 -216h-51z" />
    <glyph glyph-name="circumflex" unicode="&#x2c6;" horiz-adv-x="316" 
d="M230 691l-149 -84l10 57l149 82l119 -82l-10 -57z" />
    <glyph glyph-name="caron" unicode="&#x2c7;" horiz-adv-x="316" 
d="M363 688l-148 -82l-120 82l11 57l119 -84l148 84z" />
    <glyph glyph-name="uni02C9" unicode="&#x2c9;" horiz-adv-x="387" 
d="M437 700l-9 -54h-340l10 54h339z" />
    <glyph glyph-name="breve" unicode="&#x2d8;" horiz-adv-x="319" 
d="M323 646.5q-41 -34.5 -106 -34.5q-56 0 -85.5 27.5t-29.5 71.5q0 8 2 24l2 13h44q-2 -14 -2 -20q0 -60 79 -60q91 0 105 80h45l-3 -14q-10 -53 -51 -87.5z" />
    <glyph glyph-name="dotaccent" unicode="&#x2d9;" horiz-adv-x="147" 
d="M103.5 636.5q-11.5 13.5 -8.5 32.5q4 19 20 32.5t35 13.5q16 0 27 -10.5t11 -26.5q0 -6 -1 -9q-3 -19 -18.5 -32.5t-34.5 -13.5t-30.5 13.5z" />
    <glyph glyph-name="ring" unicode="&#x2da;" horiz-adv-x="248" 
d="M142 782.5q34 27.5 76 27.5q37 0 60.5 -21.5t23.5 -57.5t-17 -63.5t-44.5 -42.5t-58.5 -15q-37 0 -61 21.5t-24 58.5q0 6 2 20q9 45 43 72.5zM247 758q-14 13 -37 13q-26 0 -45.5 -16.5t-24.5 -44.5q-1 -5 -1 -13q0 -22 13.5 -35t36.5 -13q29 0 50.5 21t21.5 53
q0 22 -14 35z" />
    <glyph glyph-name="ogonek" unicode="&#x2db;" horiz-adv-x="248" 
d="M161 0l-64 -29q-42 -19 -60 -39t-18 -44q0 -20 14.5 -30.5t39.5 -10.5q30 0 67 14l-9 -49q-37 -13 -75 -13q-42 0 -70 18t-28 55q0 87 131 142l59 24z" />
    <glyph glyph-name="tilde" unicode="&#x2dc;" horiz-adv-x="334" 
d="M122.5 675q27.5 24 63.5 24q18 0 29.5 -6t27.5 -19q13 -11 23 -16.5t24 -5.5q17 0 31 11.5t20 33.5h43q-13 -44 -41.5 -68.5t-64.5 -24.5q-19 0 -31.5 6.5t-27.5 19.5q-12 10 -22 15.5t-23 5.5q-37 0 -50 -45h-43q14 45 41.5 69z" />
    <glyph glyph-name="hungarumlaut" unicode="&#x2dd;" horiz-adv-x="325" 
d="M129 601h-49l90 139h63zM268 601h-49l100 139h63z" />
    <glyph glyph-name="pi" unicode="&#x3c0;" horiz-adv-x="713" 
d="M710 546l-10 -56h-82l-86 -490h-70l87 490h-314l-87 -490h-70l87 490h-82l10 56h617z" />
    <glyph glyph-name="dvCandrabindu" unicode="&#x901;" horiz-adv-x="0" 
d="M-6 994q-13 -13 -31 -13q-16 0 -24 10.5t-6 25.5q3 15 15 25.5t28 10.5q14 0 22.5 -8t8.5 -21q0 -17 -13 -30zM88.5 868.5q-56.5 -48.5 -148.5 -48.5q-82 0 -127 40.5t-45 100.5q0 17 2 26h53q-2 -12 -2 -19q0 -42 30.5 -71t91.5 -29q68 0 111 36t51 83h53
q-13 -70 -69.5 -118.5z" />
    <glyph glyph-name="dvAnusvara" unicode="&#x902;" horiz-adv-x="0" 
d="M-21.5 857q-16.5 -16 -38.5 -16q-17 0 -28.5 11t-11.5 28q0 22 16.5 38t38.5 16q18 0 29 -10.5t11 -27.5q0 -23 -16.5 -39z" />
    <glyph glyph-name="dvVisarga" unicode="&#x903;" horiz-adv-x="219" 
d="M164.5 465.5q-15.5 -13.5 -35.5 -13.5q-18 0 -29 10.5t-11 26.5q0 6 1 9q3 19 19 32.5t36 13.5t31 -13.5t8 -32.5q-4 -19 -19.5 -32.5zM110.5 157.5q-15.5 -13.5 -35.5 -13.5q-18 0 -29 10.5t-11 27.5q0 22 16.5 38.5t39.5 16.5q17 0 28 -10.5t11 -26.5q0 -6 -1 -9
q-3 -20 -18.5 -33.5z" />
    <glyph glyph-name="dvA" unicode="&#x905;" horiz-adv-x="823" 
d="M917 740l-8 -54h-141l-122 -686h-63l61 344l-181 1q14 -31 14 -67q0 -17 -3 -35q-15 -86 -79.5 -138.5t-155.5 -52.5q-85 0 -136 44.5t-51 117.5q0 11 4 39h60q-2 -10 -2 -28q0 -53 35.5 -85.5t94.5 -32.5q67 0 114 39t58 103q3 14 3 28q0 39 -22 68h-2v2q-34 41 -107 41
h-38l9 53h38q68 0 111 36.5t52 85.5q3 14 3 27q0 48 -33 76t-85 28q-61 0 -109 -34.5t-57 -92.5h-59q14 83 79.5 132.5t155.5 49.5q76 0 122 -39t46 -105q0 -15 -3 -32q-11 -59 -50.5 -100.5t-103.5 -55.5l-1 -2q27 -4 49 -17h240l60 342h203z" />
    <glyph glyph-name="dvAA" unicode="&#x906;" horiz-adv-x="1110" 
d="M1194 686h-140l-121 -686h-63l120 686h-222l-122 -686h-63l61 344l-181 1q14 -31 14 -67q0 -17 -3 -35q-15 -86 -79.5 -138.5t-155.5 -52.5q-85 0 -136 44.5t-51 117.5q0 11 4 39h60q-2 -10 -2 -28q0 -53 35.5 -85.5t94.5 -32.5q67 0 114 39t58 103q3 14 3 28
q0 39 -22 68h-2v2q-34 41 -107 41h-38l9 53h38q68 0 111 36.5t52 85.5q3 14 3 27q0 48 -33 76t-85 28q-61 0 -109 -34.5t-57 -92.5h-59q14 83 79.5 132.5t155.5 49.5q76 0 122 -39t46 -105q0 -15 -3 -32q-11 -59 -50.5 -100.5t-103.5 -55.5l-1 -2q27 -4 49 -17h240l60 342
h490z" />
    <glyph glyph-name="dvI" unicode="&#x907;" horiz-adv-x="583" 
d="M526 686l-23 -133l-4 -19v-2l-5 -26h-175q-57 0 -100.5 -20.5t-52.5 -73.5q-2 -14 -2 -18q0 -38 30 -56t77 -18h45q76 0 127 -32.5t51 -103.5q0 -16 -3 -36q-13 -70 -66.5 -115t-140.5 -45q-55 0 -91 17.5t-54.5 41.5t-22.5 44l-28 -166h-61l45 255h57
q-4 -64 33.5 -103.5t112.5 -39.5q50 0 85.5 20t53.5 52.5t18 69.5q0 51 -38.5 72.5t-97.5 21.5h-50q-64 2 -105 30.5t-41 83.5q0 12 3 27q12 74 70.5 106.5t136.5 32.5h131l23 133h-442l9 54h662l-9 -54h-158z" />
    <glyph glyph-name="dvII" unicode="&#x908;" horiz-adv-x="581" 
d="M773.5 971q33.5 -32 33.5 -87q0 -21 -4 -40h-57q3 14 3 26q0 36 -21 57.5t-57 21.5q-50 0 -81.5 -33.5t-42.5 -98.5l-13 -77h159l-8 -54h-159l-23 -133l-4 -19v-2l-5 -26h-175q-57 0 -100.5 -20.5t-52.5 -73.5q-2 -14 -2 -18q0 -38 30 -56t77 -18h45q76 0 127 -32.5
t51 -103.5q0 -16 -3 -36q-13 -70 -66.5 -115t-140.5 -45q-55 0 -91 17.5t-54.5 41.5t-22.5 44l-28 -166h-61l45 255h57q-4 -64 33.5 -103.5t112.5 -39.5q49 0 84.5 19.5t54 52t18.5 69.5q0 51 -38 73t-98 22h-50q-64 2 -105 30.5t-41 83.5q0 12 3 27q12 74 70.5 106.5
t136.5 32.5h131l23 133h-441l9 54h443l14 77q15 87 63 136.5t127 49.5q61 0 94.5 -32z" />
    <glyph glyph-name="dvU" unicode="&#x909;" horiz-adv-x="578" 
d="M662 686h-130l-21 -115q-11 -62 -50.5 -103.5t-91.5 -50.5l-1 -2q56 -11 86 -53.5t30 -102.5q0 -20 -3 -41q-11 -63 -45.5 -111.5t-88.5 -76t-121 -27.5q-92 0 -147 49.5t-55 130.5q0 13 4 41h61q-3 -15 -3 -29q0 -59 41 -97t106 -38q72 0 123.5 45t64.5 117q3 17 3 34
q0 55 -34 92.5t-106 37.5h-42l9 56h35q69 0 112 37.5t53 95.5l19 111h-444l10 54h636z" />
    <glyph glyph-name="dvUU" unicode="&#x90a;" horiz-adv-x="867" 
d="M460.5 467.5q-39.5 -41.5 -91.5 -50.5l-1 -2h215q91 0 146 -37.5t55 -117.5q0 -12 -4 -42q-17 -95 -79.5 -141.5t-149.5 -46.5q-20 0 -43 3l9 49q12 -1 34 -1q63 0 109 33.5t59 106.5q3 17 3 30q0 58 -41 85t-106 27h-125q34 -43 34 -107q0 -13 -4 -41
q-11 -61 -45.5 -109t-88 -75.5t-120.5 -27.5q-92 0 -147 49.5t-55 130.5q0 13 4 41h61q-3 -15 -3 -29q0 -59 41 -97t106 -38q72 0 123.5 45t64.5 117q3 17 3 34q0 55 -34 92.5t-106 37.5h-42l9 56h35q69 0 112 37.5t53 95.5l19 111h-444l10 54h926l-10 -54h-421l-20 -115
q-11 -62 -50.5 -103.5z" />
    <glyph glyph-name="dvvR" unicode="&#x90b;" horiz-adv-x="1013" 
d="M619 686l-44 -251h188q84 0 102 68l13 76h56l-62 -354h-17q-45 0 -78.5 -19.5t-51.5 -51.5t-18 -70q0 -44 30 -65t78 -21q31 0 58 9l-9 -53q-34 -9 -66 -9q-69 0 -111.5 32.5t-42.5 94.5q0 15 3 33q11 64 58 107t117 53l26 144q-42 -27 -103 -27h-179l-67 -382h-60
l54 305l-350 -305h-79l1 5l439 368q2 65 -37.5 106t-109.5 41q-86 0 -148.5 -54t-78.5 -145h-64q13 76 53.5 133.5t100.5 89t130 31.5q67 0 110 -28t62 -79l38 218h-534l10 54h1071l-9 -54h-479z" />
    <glyph glyph-name="dvvL" unicode="&#x90c;" horiz-adv-x="899" 
d="M717 686l-25 -139q60 -10 93.5 -54.5t33.5 -114.5q0 -23 -5 -55q-9 -57 -34 -100h-7q-73 0 -114 -40.5t-41 -100.5q0 -43 30 -64t79 -21q30 0 59 9l-9 -53q-31 -9 -66 -9q-69 0 -112 32t-43 95q0 17 3 35q11 62 59 105.5t115 50.5q12 28 18 62q4 21 4 45q0 56 -28.5 90
t-83.5 34q-73 0 -121 -54.5t-60 -145.5l-3 -15h-54l2 15q4 29 4 61q0 139 -106 139q-71 0 -117 -47t-60 -123q-4 -21 -4 -46q0 -65 36.5 -102.5t107.5 -37.5q7 0 31 2l-11 -56q-26 -2 -34 -2q-96 0 -145.5 50t-49.5 135q0 24 5 57q18 104 83 165.5t157 61.5
q74 0 108.5 -45.5t36.5 -108.5h3q23 58 67 101t111 51l24 138h-630l10 54h957l-10 -54h-264z" />
    <glyph glyph-name="dvEcandra" unicode="&#x90d;" horiz-adv-x="652" 
d="M262 881q-42 39 -42 98q0 16 3 31h55q-2 -14 -2 -20q0 -41 30 -69.5t90 -28.5q67 0 109 35.5t50 82.5h55q-7 -44 -35 -82.5t-76 -62t-112 -23.5q-83 0 -125 39zM711 686h-119l-22 -125q-18 -104 -65 -153t-134 -49q-10 0 -34 2l10 58q7 -1 21 -1q61 0 94 34t47 110
l21 124h-329l-72 -413q-6 -28 -6 -55q0 -68 39 -106t112 -38q77 0 125.5 45.5t62.5 128.5h63q-18 -109 -84.5 -169t-172.5 -60q-103 0 -156 51.5t-53 141.5q0 30 6 63l73 411h-137l10 54h710z" />
    <glyph glyph-name="dvE" unicode="&#x90f;" horiz-adv-x="651" 
d="M735 686h-119l-22 -125q-18 -104 -65 -153t-134 -49q-10 0 -34 2l10 58q7 -1 21 -1q61 0 94 34t47 110l21 124h-329l-72 -413q-6 -28 -6 -55q0 -68 39 -106t112 -38q77 0 125.5 45.5t62.5 128.5h63q-18 -109 -84.5 -169t-172.5 -60q-103 0 -156 51.5t-53 141.5q0 30 6 63
l73 411h-137l10 54h710z" />
    <glyph glyph-name="dvAI" unicode="&#x910;" horiz-adv-x="651" 
d="M735 686h-119l-22 -125q-18 -104 -65 -153t-134 -49q-10 0 -34 2l10 58q7 -1 21 -1q61 0 94 34t47 110l21 124h-329l-72 -413q-6 -28 -6 -55q0 -68 39 -106t112 -38q77 0 125.5 45.5t62.5 128.5h63q-18 -109 -84.5 -169t-172.5 -60q-103 0 -156 51.5t-53 141.5q0 30 6 63
l73 411h-137l10 54h526q-40 86 -68.5 123.5t-58.5 48.5t-86 11h-38l9 53h38q70 0 108.5 -14t74.5 -63t82 -159h123z" />
    <glyph glyph-name="dvOcandra" unicode="&#x911;" horiz-adv-x="1110" 
d="M1194 686h-140l-121 -686h-63l120 686h-222l-122 -686h-63l61 344l-181 1q14 -31 14 -67q0 -17 -3 -35q-15 -86 -79.5 -138.5t-155.5 -52.5q-85 0 -136 44.5t-51 117.5q0 11 4 39h60q-2 -10 -2 -28q0 -53 35.5 -85.5t94.5 -32.5q67 0 114 39t58 103q3 14 3 28
q0 39 -22 68h-2v2q-34 41 -107 41h-38l9 53h38q68 0 111 36.5t52 85.5q3 14 3 27q0 48 -33 76t-85 28q-61 0 -109 -34.5t-57 -92.5h-59q14 83 79.5 132.5t155.5 49.5q76 0 122 -39t46 -105q0 -15 -3 -32q-11 -59 -50.5 -100.5t-103.5 -55.5l-1 -2q27 -4 49 -17h240l60 342
h490zM1131.5 891.5q-55.5 -48.5 -150.5 -48.5q-85 0 -129 39.5t-44 99.5q0 13 3 28h56q-2 -14 -2 -20q0 -41 29.5 -69.5t89.5 -28.5q68 0 110 35.5t50 82.5h55q-12 -70 -67.5 -118.5z" />
    <glyph glyph-name="dvO" unicode="&#x913;" horiz-adv-x="1110" 
d="M1204 740l-10 -54h-140l-121 -686h-63l120 686h-222l-122 -686h-63l61 344l-181 1q14 -31 14 -67q0 -17 -3 -35q-15 -86 -79.5 -138.5t-155.5 -52.5q-85 0 -136 44.5t-51 117.5q0 11 4 39h60q-2 -10 -2 -28q0 -53 35.5 -85.5t94.5 -32.5q67 0 114 39t58 103q3 14 3 28
q0 39 -22 68h-2v2q-34 41 -107 41h-38l9 53h38q68 0 111 36.5t52 85.5q3 14 3 27q0 48 -33 76t-85 28q-61 0 -109 -34.5t-57 -92.5h-59q14 83 79.5 132.5t155.5 49.5q76 0 122 -39t46 -105q0 -15 -3 -32q-11 -59 -50.5 -100.5t-103.5 -55.5l-1 -2q27 -4 49 -17h240l60 342
h347q-39 85 -68 123t-59 49t-85 11h-39l10 53h38q69 0 107.5 -14t74 -63t82.5 -159h82z" />
    <glyph glyph-name="dvAU" unicode="&#x914;" horiz-adv-x="1110" 
d="M1204 740l-10 -54h-140l-121 -686h-63l120 686h-222l-122 -686h-63l61 344l-181 1q14 -31 14 -67q0 -17 -3 -35q-15 -86 -79.5 -138.5t-155.5 -52.5q-85 0 -136 44.5t-51 117.5q0 11 4 39h60q-2 -10 -2 -28q0 -53 35.5 -85.5t94.5 -32.5q67 0 114 39t58 103q3 14 3 28
q0 39 -22 68h-2v2q-34 41 -107 41h-38l9 53h38q68 0 111 36.5t52 85.5q3 14 3 27q0 48 -33 76t-85 28q-61 0 -109 -34.5t-57 -92.5h-59q14 83 79.5 132.5t155.5 49.5q76 0 122 -39t46 -105q0 -15 -3 -32q-11 -59 -50.5 -100.5t-103.5 -55.5l-1 -2q27 -4 49 -17h240l60 342
h352q-51 49 -82.5 70t-62.5 26.5t-90 5.5h-39l8 43h38q58 0 88.5 -5t61.5 -23.5t74 -61.5q-34 91 -62.5 132t-58 51.5t-82.5 10.5h-40l7 44h39q71 0 107 -16t70.5 -76.5t81.5 -200.5h80z" />
    <glyph glyph-name="dvKA" unicode="&#x915;" horiz-adv-x="1002" 
d="M592 686l-41 -235q30 52 80.5 83.5t117.5 31.5q79 0 128.5 -49t49.5 -129q0 -22 -5 -50q-19 -108 -88 -168.5t-162 -60.5q-31 0 -59 7l9 52q16 -5 46 -5q69 0 122.5 47t67.5 129q3 20 3 37q0 62 -37.5 98.5t-97.5 36.5q-81 0 -131.5 -53.5t-64.5 -126.5l-58 -331h-61
l39 218q-32 -51 -83.5 -81.5t-119.5 -30.5q-81 0 -132 49t-51 133q0 22 5 52q12 68 49 119.5t90.5 79t115.5 27.5q70 0 111.5 -31t55.5 -82l41 233h-506l10 54h1060l-9 -54h-495zM471 338h-1q3 17 3 34q0 59 -34.5 99t-106.5 40q-46 0 -88 -21t-71.5 -60.5t-38.5 -91.5
q-4 -19 -4 -40q0 -64 39 -100.5t102 -36.5q55 0 97 25.5t67 64t34 78.5z" />
    <glyph glyph-name="dvKHA" unicode="&#x916;" horiz-adv-x="926" 
d="M1020 740l-10 -54h-140l-120 -686h-64l41 236q-27 -42 -72 -67.5t-103 -25.5q-23 0 -40 4q-40 -66 -104 -107.5t-144 -41.5q-96 0 -150 48t-54 134q0 23 5 55l28 162h38q145 0 172 156l23 133h-300l10 54h984zM806 686h-416l-24 -140q-19 -106 -76 -151.5t-138 -45.5h-4
l-21 -121q-4 -26 -4 -38q0 -63 40 -99.5t112 -36.5q61 0 109.5 31.5t78.5 80.5q-35 21 -55 58.5t-20 86.5q0 24 4 44q10 59 42.5 103.5t80 68.5t102.5 24q61 0 98 -25.5t51 -67.5zM686 236.5q45 42.5 59 99.5l4 23q1 6 1 19q0 52 -32 87.5t-96 35.5t-113.5 -41t-61.5 -110
q-3 -18 -3 -33q0 -58 36 -90.5t92 -32.5q69 0 114 42.5z" />
    <glyph glyph-name="dvGA" unicode="&#x917;" horiz-adv-x="727" 
d="M821 740l-10 -54h-140l-121 -686h-63l120 686h-192l-49 -282q-13 -74 -57.5 -120t-121.5 -46q-65 0 -99.5 35t-34.5 92q0 17 3 35l6 30h63l-6 -31q-3 -13 -3 -28q0 -34 18 -55.5t57 -21.5q50 0 76 30.5t34 77.5l51 284h-326l10 54h785z" />
    <glyph glyph-name="dvGHA" unicode="&#x918;" horiz-adv-x="714" 
d="M798 686h-140l-120 -686h-65l42 235q-41 -59 -106 -92.5t-142 -33.5q-88 0 -142.5 39t-54.5 110q0 16 3 34q11 64 59 105t109 49v2q-46 7 -72.5 34.5t-26.5 79.5q0 20 4 40l15 84h-135l10 54h772zM594 686h-369l-15 -82q-3 -18 -3 -33q0 -48 31 -72.5t98 -24.5h49l-9 -53
h-54q-92 0 -139 -43t-47 -108q0 -53 42 -80.5t111 -27.5q57 0 108.5 24t88 67.5t49.5 98.5z" />
    <glyph glyph-name="dvNGA" unicode="&#x919;" horiz-adv-x="650" 
d="M744 740l-10 -54h-212l-23 -133l-4 -19v-2l-5 -26h-174q-57 0 -100 -20.5t-52 -72.5q-2 -14 -2 -19q0 -38 29.5 -56t75.5 -18h45q77 0 127.5 -33t50.5 -102q0 -16 -3 -34q-13 -74 -73.5 -119t-160.5 -45t-156.5 45t-56.5 117q0 16 3 31h64q-2 -9 -2 -26q0 -53 39 -85
t114 -32q70 0 114.5 32.5t53.5 83.5q2 9 2 26q0 51 -38 72.5t-97 21.5h-41q-64 0 -109 28t-45 86q0 13 3 28q12 73 69.5 105.5t133.5 32.5h133l23 133h-432l9 54h707zM622.5 433q10.5 -10 10.5 -25q0 -21 -16 -36.5t-37 -15.5q-19 0 -29 12.5t-7 31.5q4 18 18.5 30.5
t33.5 12.5q16 0 26.5 -10z" />
    <glyph glyph-name="dvCA" unicode="&#x91a;" horiz-adv-x="730" 
d="M814 686h-140l-121 -686h-64l38 218q-36 -52 -93.5 -83t-123.5 -31q-79 0 -130 44t-51 120q0 18 3 39q11 59 46 104t89 69h-198l9 51h361l-9 -51h-33q-79 0 -134.5 -46.5t-68.5 -117.5q-3 -16 -3 -31q0 -60 41 -93.5t104 -33.5q52 0 97 25t76 67t40 92l61 344h-584l10 54
h788z" />
    <glyph glyph-name="dvCHA" unicode="&#x91b;" horiz-adv-x="813" 
d="M671 686l-23 -134q53 -9 85.5 -48t32.5 -105q0 -21 -5 -53q-17 -97 -76.5 -169t-150.5 -110t-200 -38q-83 0 -147.5 21.5t-101 63.5t-36.5 100q0 11 4 37q12 69 61 111.5t115 52.5v3q-45 7 -71.5 34.5t-26.5 79.5q0 20 4 40l21 114h-132l9 54h874l-10 -54h-226zM611 686
h-392l-20 -112q-3 -19 -3 -35q0 -47 30 -71t95 -24h23l-9 -53h-22q-63 0 -108 -23t-67.5 -60.5t-22.5 -82.5q0 -68 62.5 -104.5t166.5 -36.5q91 0 167.5 32t127.5 91.5t65 140.5q4 20 4 41q0 56 -29 86t-71 30q-46 0 -86.5 -31t-51.5 -95q-3 -19 -3 -41q0 -30 4 -55h-55
q-4 32 -4 49q0 25 5 53q13 76 60.5 117.5t110.5 49.5z" />
    <glyph glyph-name="dvJA" unicode="&#x91c;" horiz-adv-x="835" 
d="M919 686h-140l-120 -686h-64l79 447h-210l-20 -112q-15 -88 -73 -142t-144 -54q-71 0 -113 42t-42 111q0 24 4 44l29 166h64l-30 -167q-3 -18 -3 -34q0 -48 26 -76.5t72 -28.5q57 0 97 38.5t51 100.5l29 167h273l32 184h-690l10 54h893z" />
    <glyph glyph-name="dvJHA" unicode="&#x91d;" horiz-adv-x="851" 
d="M935 686h-141l-120 -686h-63l48 271l-212 1q44 -33 44 -94q0 -15 -3 -32q-12 -66 -63.5 -108.5t-136.5 -42.5q-75 0 -114.5 31t-50.5 63l-29 -164h-61l44 247h57q-2 -55 35 -91.5t112 -36.5q73 0 112 39t39 94q0 46 -34.5 71t-100.5 25h-51q-63 2 -104.5 30.5t-41.5 83.5
q0 14 3 29q12 73 70.5 105t136.5 32h131l23 133h-431l10 54h902zM732 686h-206l-23 -133l-4 -19v-2l-5 -26h-175q-56 0 -100 -20.5t-53 -73.5q-2 -14 -2 -18q0 -38 30 -56t77 -18h45h351z" />
    <glyph glyph-name="dvNYA" unicode="&#x91e;" horiz-adv-x="803" 
d="M887 686h-139l-122 -686h-63l54 309h-113q-24 -91 -92 -150.5t-167 -59.5q-63 0 -105.5 23.5t-63 61.5t-20.5 83h60q5 -47 39 -80t99 -33q80 0 131.5 51.5t65.5 128.5q4 28 4 40q0 61 -35 99.5t-103 38.5q-66 0 -112 -34t-65 -80h-61q24 72 88.5 120.5t159.5 48.5
q91 0 139 -50.5t48 -130.5q0 -15 -1 -22h114l57 322h-658l10 54h861z" />
    <glyph glyph-name="dvTTA" unicode="&#x91f;" horiz-adv-x="647" 
d="M212.5 452.5q-73.5 -52.5 -91.5 -152.5q-4 -26 -4 -38q0 -70 48 -113.5t127 -43.5q90 0 154 56.5t79 146.5h61q-13 -77 -54 -135.5t-104.5 -91t-142.5 -32.5q-68 0 -121 26t-82 73t-29 108q0 25 4 46q22 127 113 192.5t222 65.5h32l22 126h-423l9 54h710l-10 -54h-223
l-32 -181h-91q-100 0 -173.5 -52.5z" />
    <glyph glyph-name="dvTTHA" unicode="&#x920;" horiz-adv-x="673" 
d="M420 686l-24 -135q86 -9 140 -65t54 -140q0 -21 -5 -49q-13 -73 -56.5 -128.5t-108.5 -86t-140 -30.5q-65 0 -116 26t-80 73t-29 109q0 26 4 47q12 70 51.5 123t97.5 84.5t125 37.5l25 134h-336l10 54h735l-10 -54h-337zM525 338q0 71 -46 115.5t-123 44.5
q-56 0 -106 -24.5t-84 -68.5t-44 -100q-3 -19 -3 -38q0 -71 46 -116t122 -45q56 0 106.5 24.5t84.5 68.5t44 100q3 20 3 39z" />
    <glyph glyph-name="dvDDA" unicode="&#x921;" horiz-adv-x="578" 
d="M216 485.5q-43 -20.5 -52 -72.5q-2 -14 -2 -19q0 -38 29.5 -56t75.5 -18h45q77 0 127.5 -33t50.5 -102q0 -16 -3 -34q-13 -74 -73.5 -119t-160.5 -45t-156.5 45t-56.5 117q0 16 3 31h64q-2 -9 -2 -26q0 -53 39 -85t114 -32q70 0 114.5 32.5t53.5 83.5q2 9 2 26
q0 51 -38 72.5t-97 21.5h-41q-64 0 -109 28t-45 86q0 13 3 28q12 73 69.5 105.5t133.5 32.5h127l23 133h-426l9 54h635l-10 -54h-146l-32 -180h-168q-57 0 -100 -20.5z" />
    <glyph glyph-name="dvDDHA" unicode="&#x922;" horiz-adv-x="636" 
d="M279 490q-61 -26 -103 -78t-55 -127q-4 -21 -4 -45q0 -81 53.5 -130t145.5 -49q77 0 133.5 40.5t68.5 104.5q2 16 2 24q0 40 -25.5 65t-67.5 25q-45 0 -78.5 -26.5t-40.5 -70.5q-2 -14 -2 -21h-48q0 16 3 28q11 64 59.5 101t116.5 37q63 0 101.5 -37t38.5 -96
q0 -14 -3 -31q-10 -56 -46.5 -99.5t-93 -68t-126.5 -24.5q-74 0 -131.5 28t-90 79.5t-32.5 118.5q0 21 5 51q16 90 65.5 151.5t122 91.5t156.5 30h45l22 124h-445l10 54h695l-10 -54h-190l-29 -170h-90q-71 0 -132 -26z" />
    <glyph glyph-name="dvNNA" unicode="&#x923;" horiz-adv-x="845" 
d="M930 686h-141l-121 -686h-63l120 686h-211l-53 -298q-15 -87 -69.5 -140.5t-139.5 -53.5q-74 0 -117 41.5t-43 110.5q0 22 4 42l53 298h-123l10 54h903zM451 686h-239l-53 -304q-3 -16 -3 -33q0 -46 26 -73.5t73 -27.5q55 0 93.5 37t49.5 97z" />
    <glyph glyph-name="dvTA" unicode="&#x924;" horiz-adv-x="690" 
d="M774 686h-140l-121 -686h-63l78 444h-152q-105 0 -173 -49t-86 -146q-4 -23 -4 -47q0 -71 44.5 -109.5t129.5 -38.5h22l-9 -52h-26q-103 0 -164.5 51t-61.5 146q0 21 5 53q22 125 109.5 186t219.5 61h156l32 187h-544l10 54h748z" />
    <glyph glyph-name="dvTHA" unicode="&#x925;" horiz-adv-x="758" 
d="M852 740l-9 -54h-141l-121 -686h-64l43 239q-18 -34 -53 -65t-85 -51t-109 -20q-108 0 -171 57t-63 154q0 28 6 59q3 21 11 47h101q91 0 157 33t81 117q2 9 2 26q0 44 -26 71t-75 27q-70 0 -110.5 -49.5t-39.5 -124.5h-58q1 65 27.5 117t75.5 82t114 30q71 0 112.5 -39.5
t41.5 -103.5q0 -11 -4 -37q-17 -100 -94.5 -148.5t-190.5 -48.5q-47 0 -63 1q-6 -27 -6 -52q0 -76 49.5 -119.5t139.5 -43.5q59 0 112.5 26t91 74t48.5 110l65 372h205z" />
    <glyph glyph-name="dvDA" unicode="&#x926;" horiz-adv-x="610" 
d="M215.5 467.5q-66.5 -45.5 -81.5 -132.5q-3 -19 -3 -37q0 -63 39 -100.5t106 -37.5q38 0 76.5 16t68 49.5t37.5 82.5h58l-55 -319h-63l37 206q-28 -40 -77 -63.5t-106 -23.5q-84 0 -135.5 49t-51.5 133q0 21 5 49q20 114 104.5 171.5t201.5 57.5h81l22 118h-452l10 54h666
l-10 -54h-150l-31 -173h-140q-90 0 -156.5 -45.5z" />
    <glyph glyph-name="dvDHA" unicode="&#x927;" horiz-adv-x="708" 
d="M793 686h-139l-122 -686h-63l41 235q-39 -61 -105.5 -96.5t-145.5 -35.5q-82 0 -134.5 38t-52.5 106q0 15 3 31q12 63 55 99.5t95 43.5v2q-45 11 -74.5 44t-29.5 87q0 17 3 35q12 71 64.5 115.5t127.5 44.5q66 0 103 -33.5t37 -91.5q0 -25 -10 -62h-50q7 24 7 46
q0 41 -24 64t-69 23q-49 0 -86 -33t-45 -81q-3 -15 -3 -29q0 -48 34 -75t98 -27h63l-9 -53h-53q-81 0 -125.5 -38t-44.5 -98q0 -50 40 -77t103 -27q59 0 111.5 25.5t89.5 71.5t49 105l60 339l7 42h203z" />
    <glyph glyph-name="dvNA" unicode="&#x928;" horiz-adv-x="781" 
d="M866 686h-141l-121 -686h-64l80 452h-217q44 -41 44 -107q0 -16 -3 -34q-9 -54 -41 -95t-78.5 -63.5t-99.5 -22.5q-77 0 -124 43t-47 112q0 17 3 35q16 87 80 136.5t157 49.5h336l32 180h-636l10 54h839zM363 422.5q-32 29.5 -84 29.5q-62 0 -107.5 -37.5t-55.5 -97.5
q-2 -9 -2 -26q0 -48 32 -77t86 -29q44 0 81.5 22t59.5 59t22 80q0 47 -32 76.5z" />
    <glyph glyph-name="dvPA" unicode="&#x92a;" horiz-adv-x="649" 
d="M733 686h-140l-121 -686h-63l52 298q-31 -43 -77.5 -67t-105.5 -24q-87 0 -134 49t-47 134q0 29 6 62l43 234h-120l10 54h707zM529 686h-320l-42 -234q-5 -32 -5 -52q0 -66 34.5 -102t101.5 -36q73 0 122.5 46t62.5 115z" />
    <glyph glyph-name="dvPHA" unicode="&#x92b;" horiz-adv-x="985" 
d="M574 686l-41 -235q31 52 83 83.5t121 31.5q79 0 126.5 -47.5t47.5 -128.5q0 -26 -4 -49q-13 -72 -49.5 -124.5t-89 -80t-112.5 -27.5q-35 0 -61 8l9 51q21 -6 48 -6q70 0 122.5 47.5t67.5 129.5q3 20 3 36q0 63 -37.5 99.5t-97.5 36.5q-56 0 -98.5 -27t-67.5 -69t-33 -89
v1l-58 -327h-63l52 299q-30 -44 -75 -68t-101 -24q-83 0 -126 46t-43 129q0 31 6 67l43 237h-120l10 54h1044l-10 -54h-496zM510 686h-301l-42 -237q-6 -31 -6 -59q0 -61 31.5 -94.5t95.5 -33.5q67 0 113.5 43t61.5 110z" />
    <glyph glyph-name="dvBA" unicode="&#x92c;" horiz-adv-x="689" 
d="M783 740l-9 -54h-141l-120 -686h-62l39 218q-33 -52 -89.5 -85t-129.5 -33q-59 0 -106 23.5t-73.5 67t-26.5 101.5q0 26 4 47q13 72 53 125.5t99 82.5t127 29q74 0 120.5 -33.5t62.5 -86.5l40 230h-545l10 54h747zM516 376q0 65 -41 110t-121 45q-39 0 -76 -13t-67 -37
l243 -260q23 26 38.5 56.5t20.5 61.5q3 18 3 37zM122 298q0 -70 47 -110t120 -40q81 0 141 50l-244 261q-47 -50 -60 -122q-4 -19 -4 -39z" />
    <glyph glyph-name="dvBHA" unicode="&#x92d;" horiz-adv-x="779" 
d="M873 740l-9 -54h-141l-121 -686h-64l70 398h-174l-15 -85q-17 -98 -70.5 -150t-134.5 -52q-70 0 -111 37.5t-41 99.5q0 17 3 33q15 79 74 124.5t142 45.5h102l17 100q5 30 5 49q0 93 -82 93q-45 0 -78 -30.5t-43 -84.5q-3 -18 -3 -40h-63q-1 20 2 42q14 77 65 123t126 46
q69 0 102.5 -38t33.5 -106q0 -30 -6 -63l-16 -91h174l51 289h205zM373 398h-100q-57 0 -97.5 -31.5t-50.5 -85.5q-2 -9 -2 -25q0 -41 26.5 -65.5t70.5 -24.5q53 0 89.5 38t48.5 106z" />
    <glyph glyph-name="dvMA" unicode="&#x92e;" horiz-adv-x="771" 
d="M855 686h-140l-121 -686h-64l70 398h-197l-15 -85q-17 -98 -70.5 -150t-134.5 -52q-69 0 -110 36.5t-41 98.5q0 17 3 35q13 79 72.5 124.5t141.5 45.5h103l41 235h-367l10 54h829zM651 686h-197l-42 -235h197zM342 398h-101q-63 0 -105.5 -39t-42.5 -103
q0 -41 26.5 -65.5t70.5 -24.5q52 0 88 38t49 106z" />
    <glyph glyph-name="dvYA" unicode="&#x92f;" horiz-adv-x="732" 
d="M816 686h-140l-120 -686h-64l41 234q-36 -51 -96 -83t-137 -32q-106 0 -167 58.5t-61 159.5q0 30 6 64q3 18 10 44h16q89 0 144.5 37.5t71.5 128.5l13 75h-307l10 54h790zM612 686h-215l-15 -85q-17 -99 -78.5 -145.5t-161.5 -48.5q-2 -8 -2 -11q-5 -24 -5 -54
q0 -79 48.5 -123.5t134.5 -44.5q56 0 106 23.5t84.5 66t46.5 97.5z" />
    <glyph glyph-name="dvRA" unicode="&#x930;" horiz-adv-x="537" 
d="M622 686h-129l-18 -107q-20 -113 -87 -171.5t-177 -58.5h-62l-26 -146q-5 -25 -5 -43q0 -52 28.5 -83t82.5 -31q58 0 97 39t50 106l3 17h62l-2 -16q-16 -93 -72 -147t-142 -54q-80 0 -125 44.5t-45 118.5q0 30 5 52l34 196h107q87 0 140.5 44.5t69.5 132.5l19 107h-403
l10 54h594z" />
    <glyph glyph-name="dvRxA" unicode="&#x931;" horiz-adv-x="537" 
d="M622 686h-129l-18 -107q-20 -113 -87 -171.5t-177 -58.5h-62l-26 -146q-5 -25 -5 -43q0 -52 28.5 -83t82.5 -31q58 0 97 39t50 106l3 17h62l-2 -16q-16 -93 -72 -147t-142 -54q-80 0 -125 44.5t-45 118.5q0 30 5 52l34 196h107q87 0 140.5 44.5t69.5 132.5l19 107h-403
l10 54h594zM69.5 -132q-15.5 -13 -35.5 -13q-17 0 -28.5 10.5t-11.5 27.5q0 22 17 38t39 16q20 0 31 -13.5t8 -33.5q-4 -19 -19.5 -32z" />
    <glyph glyph-name="dvLA" unicode="&#x932;" horiz-adv-x="895" 
d="M718 686l-24 -142q58 -12 90 -57t32 -113q0 -23 -5 -55q-19 -107 -89.5 -173.5t-180.5 -66.5q-13 0 -39 2l11 57q18 -2 29 -2q82 0 136 51t69 134q4 20 4 44q0 57 -28.5 91.5t-84.5 34.5q-71 0 -118 -54t-63 -146l-2 -13h-54l1 13q7 42 7 67q0 63 -28 98t-84 35
q-70 0 -115.5 -47t-58.5 -123q-4 -21 -4 -45q0 -65 36.5 -102.5t108.5 -37.5q9 0 29 2l-10 -57q-24 -2 -30 -2q-97 0 -148 52t-51 138q0 23 5 55q18 104 82 164t156 60q75 0 111 -45t39 -108h2q24 59 69 102t113 50l25 139h-636l10 54h959l-10 -54h-261z" />
    <glyph glyph-name="dvLLA" unicode="&#x933;" horiz-adv-x="998" 
d="M797 686l-24 -132q68 -12 107.5 -59t39.5 -118q0 -25 -4 -48q-11 -65 -48.5 -115.5t-93 -79t-118.5 -28.5q-78 0 -126.5 42t-54.5 105h-3q-28 -64 -89.5 -105.5t-139.5 -41.5q-84 0 -136.5 49t-52.5 130q0 24 4 44q12 68 49.5 119.5t93 80t117.5 28.5q79 0 125 -40
t58 -104h2q32 60 85 99t124 44l23 130h-717l10 54h1064l-10 -54h-285zM458 366q0 61 -37 98t-102 37q-74 0 -129.5 -47.5t-68.5 -124.5q-3 -18 -3 -35q0 -60 38.5 -96t102.5 -36q74 0 128 46.5t68 120.5q3 20 3 37zM857 365q0 62 -38.5 99t-101.5 37q-75 0 -129.5 -48
t-68.5 -124q-3 -18 -3 -35q0 -60 37 -96t102 -36q73 0 129.5 46.5t69.5 120.5q3 20 3 36z" />
    <glyph glyph-name="dvVA" unicode="&#x935;" horiz-adv-x="676" 
d="M770 740l-10 -54h-140l-120 -686h-63l38 218q-33 -52 -88 -83t-125 -31q-89 0 -143 50t-54 137q0 23 5 53q12 68 50 119.5t94 79t121 27.5q73 0 119 -31t64 -82l40 229h-532l10 54h734zM388.5 183q45.5 27 72.5 68t35 84q3 18 3 37q0 62 -38 104t-116 42q-50 0 -95.5 -22
t-77 -62.5t-41.5 -94.5q-3 -19 -3 -38q0 -68 42 -106.5t112 -38.5q61 0 106.5 27z" />
    <glyph glyph-name="dvSHA" unicode="&#x936;" horiz-adv-x="803" 
d="M492 705q48 -44 48 -120q0 -25 -4 -46q-19 -103 -95.5 -157t-184.5 -54h-103l-21 -120q-4 -20 -4 -44q0 -54 29 -85.5t87 -31.5q62 0 105 43.5t55 117.5h62q-14 -98 -72 -157t-154 -59q-86 0 -131.5 44.5t-45.5 121.5q0 22 5 54l30 171h148q86 0 149.5 42t77.5 120
q3 17 3 32q0 54 -32 85t-84 31q-50 0 -88.5 -25.5t-59 -69t-20.5 -98.5h-63q2 73 32.5 129.5t83.5 88t121 31.5q78 0 126 -44zM897 740l-10 -54h-140l-121 -686h-64l130 740h205z" />
    <glyph glyph-name="dvSSA" unicode="&#x937;" horiz-adv-x="654" 
d="M738 686h-140l-121 -686h-63l52 297q-31 -45 -78.5 -69.5t-107.5 -24.5q-85 0 -134 50.5t-49 138.5q0 29 6 60l43 234h-120l10 54h712zM535 686h-328l279 -275l3 16zM401 287.5q44 29.5 68 78.5l-272 267l-32 -183q-5 -28 -5 -49q0 -67 37 -105t103 -38q57 0 101 29.5z
" />
    <glyph glyph-name="dvSA" unicode="&#x938;" horiz-adv-x="817" 
d="M901 686h-141l-120 -686h-64l64 363h-490l-28 -160q-4 -20 -4 -41q0 -54 28.5 -85t84.5 -31q61 0 100 43.5t49 112.5h62q-12 -94 -69 -152.5t-148 -58.5q-82 0 -126 45.5t-44 122.5q0 27 4 50l36 202h98q86 0 140.5 47.5t69.5 129.5l18 98h-395l10 54h875zM697 686h-213
l-18 -98q-11 -61 -39.5 -104t-67.5 -69h290z" />
    <glyph glyph-name="dvHA" unicode="&#x939;" horiz-adv-x="595" 
d="M690 740l-10 -54h-145l-22 -130l-9 -47h-186q-51 0 -88.5 -21.5t-45.5 -67.5q-2 -12 -2 -17q0 -28 18.5 -48t49.5 -29q29 6 59 6q64 0 106.5 -23.5t63 -60t20.5 -75.5h-61q-4 42 -38 74.5t-100 32.5q-51 0 -92.5 -22.5t-67.5 -60t-34 -81.5q-3 -18 -3 -36q0 -58 35.5 -93
t103.5 -35q64 0 110 32t65 74h62q-14 -42 -47 -78.5t-83 -59t-111 -22.5q-94 0 -146 50.5t-52 128.5q0 23 4 42q11 63 49.5 112.5t96.5 75.5q-31 14 -50 39.5t-19 61.5q0 7 2 23q12 63 61.5 94t123.5 31h143l23 130h-438l9 54h645z" />
    <glyph glyph-name="dvNukta" unicode="&#x93c;" horiz-adv-x="0" 
d="M-351.5 -104q-15.5 -13 -35.5 -13q-17 0 -28.5 10.5t-11.5 27.5q0 22 17 38t39 16q20 0 31 -13.5t8 -33.5q-4 -19 -19.5 -32z" />
    <glyph glyph-name="dvAvagraha" unicode="&#x93d;" horiz-adv-x="571" 
d="M27 65l10 55h240q45 0 71 24.5t26 59.5q0 33 -22.5 63.5t-68.5 76.5q-55 54 -84.5 96t-29.5 92q0 17 2 26q11 59 56.5 86.5t109.5 27.5h198l-10 -55h-181q-97 0 -109 -68q-1 -5 -1 -15q0 -34 22.5 -65t70.5 -80q55 -55 83 -95t28 -88q0 -59 -40.5 -100t-116.5 -41h-254z
" />
    <glyph glyph-name="dvmAA" unicode="&#x93e;" 
d="M47 0l120 686h-141l10 54h345l-10 -54h-140l-121 -686h-63z" />
    <glyph glyph-name="dvmI" unicode="&#x93f;" 
d="M762.5 965q75.5 -22 122 -68.5t46.5 -116.5q0 -11 -4 -39l-3 -17h-63l2 16q3 17 3 30q0 87 -83.5 125.5t-196.5 38.5q-130 0 -229.5 -42.5t-117.5 -151.5h142l-10 -54h-140l-122 -686h-63l121 686h-141l10 54h140q22 130 141 188.5t279 58.5q91 0 166.5 -22z" />
    <glyph glyph-name="dvmII" unicode="&#x940;" horiz-adv-x="286" 
d="M381 740l-9 -54h-141l-121 -686h-64l121 686h-141l9 54h143l8 43q5 28 5 49q0 46 -21.5 73.5t-69.5 27.5q-111 0 -141 -150l-11 -59h-62l11 57q17 93 69 149.5t143 56.5q76 0 110.5 -38.5t34.5 -105.5q0 -29 -6 -62l-8 -41h141z" />
    <glyph glyph-name="dvmU" unicode="&#x941;" horiz-adv-x="0" 
d="M-159 -246q-59 -43 -149 -43q-84 0 -138 39t-54 115q0 28 5 49h57q-5 -25 -5 -41q0 -55 38.5 -83t102.5 -28t106.5 29.5t51.5 83.5q2 14 2 19q0 35 -21 57.5t-61 22.5h-21l9 51h22q60 0 94.5 -35.5t34.5 -89.5q0 -9 -2 -27q-13 -76 -72 -119z" />
    <glyph glyph-name="dvmUU" unicode="&#x942;" horiz-adv-x="0" 
d="M-274 -283q-60 0 -101.5 32.5t-41.5 89.5q0 14 3 29q12 72 67.5 113.5t137.5 41.5q94 0 149 -55.5t55 -148.5q0 -33 -7 -67q-4 -18 -7 -28h-53l7 35q6 30 6 56q0 74 -42 116.5t-112 42.5q-65 0 -107.5 -35.5t-42.5 -92.5q0 -37 27 -58.5t69 -21.5q8 0 32 2l-9 -49
q-18 -2 -30 -2z" />
    <glyph glyph-name="dvmvR" unicode="&#x943;" horiz-adv-x="0" 
d="M-256 -303q-41 0 -77 16.5t-58 48.5t-22 77q0 13 3 30q13 70 69 112.5t142 42.5q20 0 26 -1l-7 -45h-23q-66 0 -106 -37t-40 -94q0 -45 32.5 -71.5t78.5 -26.5q36 0 73 11l-9 -51q-38 -12 -82 -12z" />
    <glyph glyph-name="dvmvRR" unicode="&#x944;" horiz-adv-x="0" 
d="M-231 -433q-30 -5 -58 -5q-62 0 -102.5 27t-40.5 78q0 52 32 86.5t78 44.5v2q-32 8 -51 29t-19 55q0 15 2 23q10 60 56.5 88.5t104.5 28.5h56l-6 -39h-36q-43 0 -74.5 -19.5t-39.5 -61.5q-2 -12 -2 -17q0 -32 25.5 -47.5t66.5 -15.5h44l-8 -48h-46q-44 0 -77 -18.5
t-41 -60.5q-2 -12 -2 -16q0 -33 27.5 -50.5t69.5 -17.5q26 0 54 5t45 11l-9 -50q-19 -7 -49 -12z" />
    <glyph glyph-name="dvmEcandra" unicode="&#x945;" horiz-adv-x="0" 
d="M90.5 868.5q-55.5 -48.5 -150.5 -48.5q-85 0 -129 39.5t-44 99.5q0 13 3 28h56q-2 -14 -2 -20q0 -41 29.5 -69.5t89.5 -28.5q68 0 110 35.5t50 82.5h55q-12 -70 -67.5 -118.5z" />
    <glyph glyph-name="dvmE" unicode="&#x947;" horiz-adv-x="0" 
d="M-108 736q-40 87 -69 126t-59 50t-86 11h-39l10 53h38q70 0 108.5 -14t74.5 -64t83 -162h-61z" />
    <glyph glyph-name="dvmAI" unicode="&#x948;" horiz-adv-x="0" 
d="M-202 1017q36 -16 70.5 -77t82.5 -203h-56q-52 51 -84 72t-63 27t-91 6h-39l8 43h38q58 0 88.5 -5t61.5 -23.5t74 -61.5q-34 91 -62.5 132t-58 51.5t-82.5 10.5h-40l7 44h39q71 0 107 -16z" />
    <glyph glyph-name="dvmOcandra" unicode="&#x949;" 
d="M378.5 868.5q-55.5 -48.5 -150.5 -48.5q-85 0 -129 39.5t-44 99.5q0 13 3 28h56q-2 -14 -2 -20q0 -41 29.5 -69.5t89.5 -28.5q68 0 110 35.5t50 82.5h55q-12 -70 -67.5 -118.5zM47 0l120 686h-141l10 54h345l-10 -54h-140l-121 -686h-63z" />
    <glyph glyph-name="dvmO" unicode="&#x94b;" 
d="M381 740l-9 -54h-141l-121 -686h-64l121 686h-141l10 54h141q-39 85 -68 123t-59 49t-85 11h-39l9 53h38q70 0 108.5 -14t74.5 -63t82 -159h143z" />
    <glyph glyph-name="dvmAU" unicode="&#x94c;" 
d="M356 740l-10 -54h-141l-120 -686h-64l120 686h-141l10 54h145q-51 49 -83 70t-63 26.5t-90 5.5h-39l8 43h38q58 0 88.5 -5t61.5 -23.5t74 -61.5q-34 91 -62.5 132t-58 51.5t-82.5 10.5h-40l7 44h39q71 0 107 -16t70.5 -76.5t81.5 -200.5h144z" />
    <glyph glyph-name="dvVirama" unicode="&#x94d;" horiz-adv-x="0" 
d="M-162 -255l-85 193h63l88 -193h-66z" />
    <glyph glyph-name="dvOm" unicode="&#x950;" horiz-adv-x="1052" 
d="M630.5 918.5q-8.5 8.5 -8.5 21.5q0 18 13 30.5t30 12.5q13 0 21.5 -8.5t8.5 -22.5q0 -17 -13 -29.5t-30 -12.5q-13 0 -21.5 8.5zM502.5 788q-45.5 39 -45.5 98q0 15 3 30h52q-2 -14 -2 -20q0 -41 32 -70t94 -29q69 0 109.5 35.5t49.5 83.5h52q-12 -71 -65.5 -119
t-147.5 -48q-86 0 -131.5 39zM923.5 645.5q36.5 -41.5 36.5 -119.5q0 -36 -8 -86l-25 -141q-24 -136 -95 -204t-203 -68q-39 0 -96 10l9 54q53 -8 87 -8q109 0 163 55t72 163l27 146q7 36 7 72q0 56 -24 85t-77 29q-65 0 -100 -37.5t-46 -100.5q-17 -93 -66 -133t-136 -40
h-9q16 -31 16 -73q0 -17 -3 -37q-16 -91 -81 -145t-157 -54q-85 0 -135.5 44.5t-50.5 118.5q0 19 3 38h61q-2 -10 -2 -28q0 -53 35.5 -85.5t94.5 -32.5q66 0 113.5 41t60.5 108q2 18 2 27q0 50 -31.5 83t-99.5 33h-38l10 55h38q68 0 111.5 39t52.5 91q3 15 3 28
q0 51 -33.5 80.5t-85.5 29.5q-60 0 -106 -34.5t-57 -92.5h-60q15 83 80 132.5t154 49.5q77 0 123 -40t46 -109q0 -17 -3 -35q-11 -63 -51 -106.5t-104 -56.5v-2q23 -4 45 -16h59q56 0 92.5 28t48.5 94q16 91 67.5 141.5t148.5 50.5q80 0 116.5 -41.5z" />
    <glyph glyph-name="dvKxA" unicode="&#x958;" horiz-adv-x="1002" 
d="M592 686l-41 -235q30 52 80.5 83.5t117.5 31.5q79 0 128.5 -49t49.5 -129q0 -22 -5 -50q-19 -108 -88 -168.5t-162 -60.5q-31 0 -59 7l9 52q16 -5 46 -5q69 0 122.5 47t67.5 129q3 20 3 37q0 62 -37.5 98.5t-97.5 36.5q-81 0 -131.5 -53.5t-64.5 -126.5l-58 -331h-61
l39 218q-32 -51 -83.5 -81.5t-119.5 -30.5q-81 0 -132 49t-51 133q0 22 5 52q12 68 49 119.5t90.5 79t115.5 27.5q70 0 111.5 -31t55.5 -82l41 233h-506l10 54h1060l-9 -54h-495zM471 338h-1q3 17 3 34q0 59 -34.5 99t-106.5 40q-46 0 -88 -21t-71.5 -60.5t-38.5 -91.5
q-4 -19 -4 -40q0 -64 39 -100.5t102 -36.5q55 0 97 25.5t67 64t34 78.5zM235.5 -59q-15.5 -13 -35.5 -13q-17 0 -28.5 10.5t-11.5 27.5q0 22 17 38t39 16q20 0 31 -13.5t8 -33.5q-4 -19 -19.5 -32z" />
    <glyph glyph-name="dvKHxA" unicode="&#x959;" horiz-adv-x="926" 
d="M1020 740l-10 -54h-140l-120 -686h-64l41 236q-27 -42 -72 -67.5t-103 -25.5q-23 0 -40 4q-40 -66 -104 -107.5t-144 -41.5q-96 0 -150 48t-54 134q0 23 5 55l28 162h38q145 0 172 156l23 133h-300l10 54h984zM806 686h-416l-24 -140q-19 -106 -76 -151.5t-138 -45.5h-4
l-21 -121q-4 -26 -4 -38q0 -63 40 -99.5t112 -36.5q61 0 109.5 31.5t78.5 80.5q-35 21 -55 58.5t-20 86.5q0 24 4 44q10 59 42.5 103.5t80 68.5t102.5 24q61 0 98 -25.5t51 -67.5zM686 236.5q45 42.5 59 99.5l4 23q1 6 1 19q0 52 -32 87.5t-96 35.5t-113.5 -41t-61.5 -110
q-3 -18 -3 -33q0 -58 36 -90.5t92 -32.5q69 0 114 42.5zM252.5 -166q-15.5 -13 -35.5 -13q-17 0 -28.5 10.5t-11.5 27.5q0 22 17 38t39 16q20 0 31 -13.5t8 -33.5q-4 -19 -19.5 -32z" />
    <glyph glyph-name="dvGxA" unicode="&#x95a;" horiz-adv-x="727" 
d="M821 740l-10 -54h-140l-121 -686h-63l120 686h-192l-49 -282q-13 -74 -57.5 -120t-121.5 -46q-65 0 -99.5 35t-34.5 92q0 17 3 35l6 30h63l-6 -31q-3 -13 -3 -28q0 -34 18 -55.5t57 -21.5q50 0 76 30.5t34 77.5l51 284h-326l10 54h785zM192.5 68q-15.5 -13 -35.5 -13
q-17 0 -28.5 10.5t-11.5 27.5q0 22 17 38t39 16q20 0 31 -13.5t8 -33.5q-4 -19 -19.5 -32z" />
    <glyph glyph-name="dvJxA" unicode="&#x95b;" horiz-adv-x="835" 
d="M919 686h-140l-120 -686h-64l79 447h-210l-20 -112q-15 -88 -73 -142t-144 -54q-71 0 -113 42t-42 111q0 24 4 44l29 166h64l-30 -167q-3 -18 -3 -34q0 -48 26 -76.5t72 -28.5q57 0 97 38.5t51 100.5l29 167h273l32 184h-690l10 54h893zM232.5 -26q-15.5 -13 -35.5 -13
q-17 0 -28.5 10.5t-11.5 27.5q0 22 17 38t39 16q20 0 31 -13.5t8 -33.5q-4 -19 -19.5 -32z" />
    <glyph glyph-name="dvDDxA" unicode="&#x95c;" horiz-adv-x="578" 
d="M216 485.5q-43 -20.5 -52 -72.5q-2 -14 -2 -19q0 -38 29.5 -56t75.5 -18h45q77 0 127.5 -33t50.5 -102q0 -16 -3 -34q-13 -74 -73.5 -119t-160.5 -45t-156.5 45t-56.5 117q0 16 3 31h64q-2 -9 -2 -26q0 -53 39 -85t114 -32q70 0 114.5 32.5t53.5 83.5q2 9 2 26
q0 51 -38 72.5t-97 21.5h-41q-64 0 -109 28t-45 86q0 13 3 28q12 73 69.5 105.5t133.5 32.5h127l23 133h-426l9 54h635l-10 -54h-146l-32 -180h-168q-57 0 -100 -20.5zM249.5 -178q-15.5 -13 -35.5 -13q-17 0 -28.5 10.5t-11.5 27.5q0 22 17 38t39 16q20 0 31 -13.5t8 -33.5
q-4 -19 -19.5 -32z" />
    <glyph glyph-name="dvDDHxA" unicode="&#x95d;" horiz-adv-x="636" 
d="M279 490q-61 -26 -103 -78t-55 -127q-4 -21 -4 -45q0 -81 53.5 -130t145.5 -49q77 0 133.5 40.5t68.5 104.5q2 16 2 24q0 40 -25.5 65t-67.5 25q-45 0 -78.5 -26.5t-40.5 -70.5q-2 -14 -2 -21h-48q0 16 3 28q11 64 59.5 101t116.5 37q63 0 101.5 -37t38.5 -96
q0 -14 -3 -31q-10 -56 -46.5 -99.5t-93 -68t-126.5 -24.5q-74 0 -131.5 28t-90 79.5t-32.5 118.5q0 21 5 51q16 90 65.5 151.5t122 91.5t156.5 30h45l22 124h-445l10 54h695l-10 -54h-190l-29 -170h-90q-71 0 -132 -26zM284.5 -152q-15.5 -13 -35.5 -13q-17 0 -28.5 10.5
t-11.5 27.5q0 22 17 38t39 16q20 0 31 -13.5t8 -33.5q-4 -19 -19.5 -32z" />
    <glyph glyph-name="dvPHxA" unicode="&#x95e;" horiz-adv-x="985" 
d="M574 686l-41 -235q31 52 83 83.5t121 31.5q79 0 126.5 -47.5t47.5 -128.5q0 -26 -4 -49q-13 -72 -49.5 -124.5t-89 -80t-112.5 -27.5q-35 0 -61 8l9 51q21 -6 48 -6q70 0 122.5 47.5t67.5 129.5q3 20 3 36q0 63 -37.5 99.5t-97.5 36.5q-56 0 -98.5 -27t-67.5 -69t-33 -89
v1l-58 -327h-63l52 299q-30 -44 -75 -68t-101 -24q-83 0 -126 46t-43 129q0 31 6 67l43 237h-120l10 54h1044l-10 -54h-496zM510 686h-301l-42 -237q-6 -31 -6 -59q0 -61 31.5 -94.5t95.5 -33.5q67 0 113.5 43t61.5 110zM244.5 44q-15.5 -13 -35.5 -13q-17 0 -28.5 10.5
t-11.5 27.5q0 22 17 38t39 16q20 0 31 -13.5t8 -33.5q-4 -19 -19.5 -32z" />
    <glyph glyph-name="dvvRR" unicode="&#x960;" horiz-adv-x="1014" 
d="M619 686l-44 -251h187q85 0 103 70l13 74h56l-63 -356h-40q-44 0 -75.5 -19t-39.5 -62q-1 -6 -1 -16q0 -32 25 -47.5t67 -15.5h44l-9 -49h-46q-44 0 -76.5 -19t-40.5 -63q-2 -12 -2 -16q0 -33 26.5 -48.5t69.5 -15.5q26 0 54.5 5t44.5 11l-8 -50q-20 -7 -50 -12t-58 -5
q-62 0 -102 25t-40 76q0 54 32 89.5t77 44.5l1 3q-33 8 -52 29t-19 54q0 7 2 23q11 60 57 88.5t104 28.5h6l26 148q-44 -28 -104 -28h-179l-67 -382h-59l53 306l-350 -306h-79l1 5l440 369q2 64 -38 105t-110 41q-86 0 -148.5 -54t-78.5 -145h-64q13 76 53.5 133.5t100.5 89
t130 31.5q67 0 110 -28t62 -79l38 218h-533l10 54h1072l-10 -54h-479z" />
    <glyph glyph-name="dvvLL" unicode="&#x961;" horiz-adv-x="907" 
d="M717 686l-24 -139q60 -10 93 -54.5t33 -113.5q0 -31 -5 -56q-9 -55 -33 -100h-39q-43 0 -75 -19t-40 -62q-1 -5 -1 -15q0 -33 25.5 -48.5t67.5 -15.5h43l-8 -49h-47q-44 0 -76.5 -19t-40.5 -63q-2 -12 -2 -16q0 -33 26.5 -48.5t69.5 -15.5q26 0 54.5 5t45.5 11l-9 -50
q-19 -7 -49 -12t-59 -5q-62 0 -101.5 25t-39.5 76q0 54 32 89.5t76 44.5l1 3q-32 8 -51 29t-19 54q0 15 2 23q11 60 57 88.5t104 28.5h4q14 32 19 62q4 21 4 45q0 56 -28.5 90t-83.5 34q-73 0 -121 -54.5t-60 -145.5l-3 -15h-54l2 15q4 28 4 60q0 140 -106 140
q-71 0 -117.5 -47t-59.5 -123q-4 -21 -4 -46q0 -65 36.5 -102.5t107.5 -37.5q8 0 30 2l-10 -56q-26 -2 -34 -2q-96 0 -145.5 50t-49.5 135q0 24 5 57q18 104 83 165.5t157 61.5q73 0 108 -45.5t37 -108.5h3q23 59 67.5 101.5t111.5 50.5l24 138h-625l10 54h959l-10 -54h-272
z" />
    <glyph glyph-name="dvmvL" unicode="&#x962;" horiz-adv-x="0" 
d="M-79 -286q-30 -28 -30 -69q0 -31 22.5 -46.5t56.5 -15.5q25 0 43 6l-8 -43q-24 -6 -48 -6q-51 0 -83.5 24t-32.5 70q0 54 36.5 93.5t92.5 46.5q5 14 11 40q3 18 3 34q0 39 -19.5 62.5t-58.5 23.5q-50 0 -81.5 -38t-44.5 -103l-2 -11h-44l2 11q5 28 5 46q0 44 -20 69.5
t-58 25.5q-50 0 -82.5 -33.5t-41.5 -87.5q-3 -17 -3 -30q0 -46 26 -72.5t76 -26.5q9 0 21 2l-9 -45q-6 -1 -24 -1q-71 0 -107 36t-36 98q0 12 4 40q13 76 62 120.5t116 44.5q53 0 77.5 -32t26.5 -78h2q19 46 56 78t94 32q55 0 85.5 -33t30.5 -91q0 -13 -4 -41
q-8 -42 -24 -72h-6q-52 0 -82 -28z" />
    <glyph glyph-name="dvmvLL" unicode="&#x963;" horiz-adv-x="0" 
d="M-77 -274q-23 -16 -23 -52q0 -23 17.5 -34t46.5 -11h31l-7 -40h-30q-32 0 -56.5 -13t-29.5 -44l-1 -9q0 -24 18.5 -35.5t49.5 -11.5q37 0 71 12l-6 -40q-36 -12 -78 -12q-46 0 -75 18t-29 56q0 39 23.5 65t56.5 32v2q-24 6 -37.5 21.5t-13.5 39.5q0 53 36 79t82 26h2
q7 17 10 39q3 18 3 34q0 39 -19.5 62.5t-58.5 23.5q-50 0 -81.5 -37.5t-44.5 -103.5l-2 -11h-44l2 11q5 28 5 46q0 44 -20 69.5t-58 25.5q-50 0 -82.5 -33.5t-41.5 -87.5q-3 -17 -3 -30q0 -46 26 -72.5t76 -26.5q11 0 21 2l-8 -45q-7 -1 -25 -1q-69 0 -105.5 36t-36.5 97
q0 22 4 41q13 76 61.5 120.5t115.5 44.5q53 0 77.5 -32t26.5 -78h2q19 46 56 78t94 32q55 0 85.5 -33t30.5 -90q0 -22 -4 -42q-6 -38 -24 -72h-30q-33 0 -56 -16z" />
    <glyph glyph-name="danda" unicode="&#x964;" horiz-adv-x="266" 
d="M287 741l-130 -741h-63l130 741h63z" />
    <glyph glyph-name="doubledanda" unicode="&#x965;" horiz-adv-x="460" 
d="M287 741l-130 -741h-63l130 741h63zM481 741l-130 -741h-63l130 741h63z" />
    <glyph glyph-name="dvZero" unicode="&#x966;" horiz-adv-x="616" 
d="M178.5 626q69.5 95 206.5 95q104 0 149.5 -57t45.5 -160q0 -59 -15 -144q-30 -171 -100 -266.5t-207 -95.5q-104 0 -149 56.5t-45 159.5q0 59 15 146q30 171 99.5 266zM511 498q0 76 -31.5 117.5t-105.5 41.5q-72 0 -117 -38.5t-69 -102.5t-40 -156q-16 -91 -16 -141
q0 -75 31 -116t106 -41q72 0 117 38.5t69 102.5t41 157q15 83 15 138z" />
    <glyph glyph-name="dvOne" unicode="&#x967;" horiz-adv-x="292" 
d="M94 643l12 64h170l-126 -707h-70l113 643h-99z" />
    <glyph glyph-name="dvTwo" unicode="&#x968;" horiz-adv-x="572" 
d="M339 301.5q120 109.5 138 212.5q4 26 4 39q0 50 -29.5 80t-95.5 30q-76 0 -126 -47.5t-68 -125.5h-68q25 111 98.5 172t174.5 61q85 0 134.5 -41.5t49.5 -118.5q0 -25 -4 -46q-21 -119 -141 -231.5t-286 -221.5h369l-10 -59h-478l9 50q209 137 329 246.5z" />
    <glyph glyph-name="dvThree" unicode="&#x969;" horiz-adv-x="585" 
d="M202.5 677.5q72.5 52.5 173.5 52.5q88 0 135 -41t47 -107q0 -17 -3 -35q-11 -63 -55.5 -109t-114.5 -57l-1 -5q59 -12 92.5 -49.5t33.5 -97.5q0 -11 -4 -39q-16 -86 -83 -140.5t-175 -54.5q-99 0 -155.5 48.5t-56.5 139.5q0 14 1 21h68q-3 -66 36.5 -108t115.5 -42
q77 0 124.5 39.5t58.5 102.5q3 17 3 31q0 121 -196 121h-21l11 59h22q204 0 228 133q2 9 2 26q0 48 -32 75.5t-94 27.5q-67 0 -118 -35.5t-71 -99.5h-68q24 91 96.5 143.5z" />
    <glyph glyph-name="dvFour" unicode="&#x96a;" horiz-adv-x="613" 
d="M14 170l9 53l451 490h83l-85 -482h107l-11 -61h-107l-30 -170h-69l30 170h-378zM477 636l-371 -405h300z" />
    <glyph glyph-name="dvFive" unicode="&#x96b;" horiz-adv-x="617" 
d="M583 657h-366l-45 -256q31 35 83 57.5t108 22.5q102 0 148.5 -51t46.5 -130q0 -24 -5 -54q-12 -70 -48 -126.5t-97 -89.5t-142 -33q-102 0 -156.5 53.5t-52.5 144.5h68q2 -66 42.5 -102t109.5 -36q87 0 140.5 51.5t68.5 136.5q4 21 4 44q0 63 -37 97.5t-109 34.5
q-58 0 -106.5 -27t-79.5 -73h-65l70 397h431z" />
    <glyph glyph-name="dvSix" unicode="&#x96c;" horiz-adv-x="629" 
d="M491.5 638.5q-31.5 33.5 -97.5 33.5q-98 0 -160 -76.5t-89 -248.5q30 60 93 94.5t137 34.5q90 0 140 -48t50 -134q0 -28 -6 -60q-11 -66 -46 -119.5t-93.5 -85.5t-135.5 -32q-115 0 -163.5 57.5t-48.5 163.5q0 64 14 143q65 370 319 370q96 0 141.5 -52.5t41.5 -136.5
h-66q1 63 -30.5 96.5zM258.5 397q-45.5 -19 -79 -57.5t-42.5 -94.5q-4 -20 -4 -43q0 -65 39.5 -105.5t118.5 -40.5q77 0 131.5 47t68.5 128q5 28 5 49q0 65 -37.5 100.5t-107.5 35.5q-47 0 -92.5 -19z" />
    <glyph glyph-name="dvSeven" unicode="&#x96d;" horiz-adv-x="533" 
d="M561 662l-396 -662h-77l404 657h-400l10 59h468z" />
    <glyph glyph-name="dvEight" unicode="&#x96e;" horiz-adv-x="624" 
d="M120 509q0 17 3 35q10 54 45 97t92.5 67.5t131.5 24.5q99 0 151.5 -43t52.5 -112q0 -16 -3 -34q-11 -59 -51.5 -103t-105.5 -64q56 -15 87 -53.5t31 -94.5q0 -17 -3 -37q-18 -98 -97.5 -155.5t-195.5 -57.5q-102 0 -160.5 45.5t-58.5 125.5q0 22 4 42q12 72 59.5 120
t118.5 65q-101 36 -101 132zM253.5 638.5q-51.5 -35.5 -63.5 -102.5q-2 -9 -2 -25q0 -51 39 -80.5t106 -29.5q85 0 139.5 45t54.5 119q0 53 -39 81t-107 28q-76 0 -127.5 -35.5zM182.5 309q-58.5 -38 -72.5 -114q-3 -16 -3 -32q0 -59 43 -92t119 -33q85 0 142.5 42t70.5 115
q3 17 3 31q0 60 -44.5 90.5t-117.5 30.5q-82 0 -140.5 -38z" />
    <glyph glyph-name="dvNine" unicode="&#x96f;" horiz-adv-x="625" 
d="M174 91q33 -35 101 -35q94 0 152.5 73.5t84.5 243.5q-29 -55 -88 -86.5t-128 -31.5q-91 0 -143 47.5t-52 135.5q0 22 5 55q12 67 47.5 121t94 85t135.5 31q110 0 157.5 -56t47.5 -162q0 -61 -14 -140q-33 -188 -105 -281.5t-208 -93.5q-99 0 -144.5 53.5t-39.5 140.5h65
q-1 -65 32 -100zM407.5 334.5q43.5 19.5 74 57.5t39.5 91q4 20 4 45q0 65 -37.5 104t-113.5 39q-77 0 -131.5 -48t-68.5 -128q-4 -21 -4 -44q0 -64 37.5 -100t109.5 -36q47 0 90.5 19.5z" />
    <glyph glyph-name="dvAbbreviationsign" unicode="&#x970;" horiz-adv-x="498" 
d="M378.5 477q37.5 -35 37.5 -94q0 -15 -3 -32q-12 -70 -64 -114.5t-124 -44.5q-64 0 -103.5 36t-39.5 93q0 15 3 31q12 71 66 115.5t127 44.5q63 0 100.5 -35zM177 437q-41 -33 -50 -85q-2 -14 -2 -21q0 -44 28.5 -70.5t76.5 -26.5q52 0 91 32.5t49 84.5q2 16 2 24
q0 43 -27 69t-73 26q-54 0 -95 -33z" />
    <glyph glyph-name="dvAcandra" unicode="&#x972;" horiz-adv-x="823" 
d="M917 740l-8 -54h-141l-122 -686h-63l61 344l-181 1q14 -31 14 -67q0 -17 -3 -35q-15 -86 -79.5 -138.5t-155.5 -52.5q-85 0 -136 44.5t-51 117.5q0 11 4 39h60q-2 -10 -2 -28q0 -53 35.5 -85.5t94.5 -32.5q67 0 114 39t58 103q3 14 3 28q0 39 -22 68h-2v2q-34 41 -107 41
h-38l9 53h38q68 0 111 36.5t52 85.5q3 14 3 27q0 48 -33 76t-85 28q-61 0 -109 -34.5t-57 -92.5h-59q14 83 79.5 132.5t155.5 49.5q76 0 122 -39t46 -105q0 -15 -3 -32q-11 -59 -50.5 -100.5t-103.5 -55.5l-1 -2q27 -4 49 -17h240l60 342h203zM996.5 892.5
q-55.5 -48.5 -150.5 -48.5q-85 0 -129 39.5t-44 99.5q0 13 3 28h56q-2 -14 -2 -20q0 -41 29.5 -69.5t89.5 -28.5q68 0 110 35.5t50 82.5h55q-12 -70 -67.5 -118.5z" />
    <glyph glyph-name="Wgrave" unicode="&#x1e80;" horiz-adv-x="955" 
d="M1002 699l-322 -699h-78l-70 594l-285 -594l-77 -1l-70 700h76l51 -609l287 609h79l65 -611l268 611h76zM575 796l-9 -54l-184 119l11 63z" />
    <glyph glyph-name="wgrave" unicode="&#x1e81;" horiz-adv-x="815" 
d="M846 546l-267 -546h-70l-70 457l-233 -457h-70l-75 546h72l53 -472l235 472h71l67 -473l218 473h69zM500 642l-9 -54l-184 119l11 63z" />
    <glyph glyph-name="Wacute" unicode="&#x1e82;" horiz-adv-x="955" 
d="M1002 699l-322 -699h-78l-70 594l-285 -594l-77 -1l-70 700h76l51 -609l287 609h79l65 -611l268 611h76zM724 864l-226 -119l9 54l228 128z" />
    <glyph glyph-name="wacute" unicode="&#x1e83;" horiz-adv-x="815" 
d="M846 546l-267 -546h-70l-70 457l-233 -457h-70l-75 546h72l53 -472l235 472h71l67 -473l218 473h69zM656 707l-226 -119l9 54l228 128z" />
    <glyph glyph-name="Wdieresis" unicode="&#x1e84;" horiz-adv-x="955" 
d="M1002 699l-322 -699h-78l-70 594l-285 -594l-77 -1l-70 700h76l51 -609l287 609h79l65 -611l268 611h76zM430.5 789q-10.5 11 -10.5 27q0 22 16 38t38 16q17 0 27.5 -10.5t10.5 -27.5q0 -22 -16.5 -38t-37.5 -16q-17 0 -27.5 11zM584.5 789q-10.5 11 -10.5 27
q0 22 16.5 38t38.5 16q16 0 26.5 -10.5t10.5 -26.5q0 -22 -16.5 -38.5t-37.5 -16.5q-17 0 -27.5 11z" />
    <glyph glyph-name="wdieresis" unicode="&#x1e85;" horiz-adv-x="815" 
d="M846 546l-267 -546h-70l-70 457l-233 -457h-70l-75 546h72l53 -472l235 472h71l67 -473l218 473h69zM363.5 634q-10.5 11 -10.5 27q0 22 16 38t38 16q17 0 27.5 -10.5t10.5 -27.5q0 -22 -16.5 -38t-37.5 -16q-17 0 -27.5 11zM517.5 634q-10.5 11 -10.5 27q0 22 16.5 38
t38.5 16q16 0 26.5 -10.5t10.5 -26.5q0 -22 -16.5 -38.5t-37.5 -16.5q-17 0 -27.5 11z" />
    <glyph glyph-name="uni1EBC" unicode="&#x1ebc;" horiz-adv-x="503" 
d="M213 644l-46 -264h265l-9 -56h-266l-47 -268h295l-10 -56h-365l123 700h366l-11 -56h-295zM240.5 819q27.5 24 63.5 24q18 0 29.5 -6t27.5 -19q13 -11 23 -16.5t24 -5.5q17 0 31 11.5t20 33.5h43q-13 -44 -41.5 -68.5t-64.5 -24.5q-19 0 -31.5 6.5t-27.5 19.5
q-12 10 -22 15.5t-23 5.5q-37 0 -50 -45h-43q14 45 41.5 69z" />
    <glyph glyph-name="uni1EBD" unicode="&#x1ebd;" horiz-adv-x="622" 
d="M482 527.5q49 -26.5 74.5 -72.5t25.5 -105q0 -27 -4 -48q-6 -30 -12 -54h-453q-3 -19 -3 -36q0 -77 46.5 -119t118.5 -42q69 0 121 33t76 89h75q-34 -80 -108.5 -130.5t-173.5 -50.5q-102 0 -163.5 58.5t-61.5 159.5q0 30 6 63q15 85 60.5 149t112.5 98t145 34
q69 0 118 -26.5zM511 347q0 71 -45 109t-115 38q-51 0 -98 -22t-82 -66t-48 -106h383q5 28 5 47zM278.5 675q27.5 24 63.5 24q18 0 29.5 -6t27.5 -19q13 -11 23 -16.5t24 -5.5q17 0 31 11.5t20 33.5h43q-13 -44 -41.5 -68.5t-64.5 -24.5q-19 0 -31.5 6.5t-27.5 19.5
q-12 10 -22 15.5t-23 5.5q-37 0 -50 -45h-43q14 45 41.5 69z" />
    <glyph glyph-name="Ygrave" unicode="&#x1ef2;" horiz-adv-x="564" 
d="M616 699l-300 -427l-48 -272h-70l48 272l-150 427h79l117 -363l245 363h79zM464 786l-9 -54l-184 119l11 63z" />
    <glyph glyph-name="ygrave" unicode="&#x1ef3;" horiz-adv-x="545" 
d="M139 546l103 -463l261 463h73l-465 -803h-74l152 261l-128 542h78zM428 642l-9 -54l-184 119l11 63z" />
    <glyph glyph-name="uni1EF8" unicode="&#x1ef8;" horiz-adv-x="564" 
d="M616 699l-300 -427l-48 -272h-70l48 272l-150 427h79l117 -363l245 363h79zM275.5 819q27.5 24 63.5 24q18 0 29.5 -6t27.5 -19q13 -11 23 -16.5t24 -5.5q17 0 31 11.5t20 33.5h43q-13 -44 -41.5 -68.5t-64.5 -24.5q-19 0 -31.5 6.5t-27.5 19.5q-12 10 -22 15.5t-23 5.5
q-37 0 -50 -45h-43q14 45 41.5 69z" />
    <glyph glyph-name="uni1EF9" unicode="&#x1ef9;" horiz-adv-x="545" 
d="M139 546l103 -463l261 463h73l-465 -803h-74l152 261l-128 542h78zM240.5 675q27.5 24 63.5 24q18 0 29.5 -6t27.5 -19q13 -11 23 -16.5t24 -5.5q17 0 31 11.5t20 33.5h43q-13 -44 -41.5 -68.5t-64.5 -24.5q-19 0 -31.5 6.5t-27.5 19.5q-12 10 -22 15.5t-23 5.5
q-37 0 -50 -45h-43q14 45 41.5 69z" />
    <glyph glyph-name="zerowidthnonjoiner" unicode="&#x200c;" horiz-adv-x="0" 
d="M-23 -230v1041h47v-1041h-47z" />
    <glyph glyph-name="zerowidthjoiner" unicode="&#x200d;" horiz-adv-x="0" 
d="M95 560l-72 75v-865h-47v865l-69 -73l-33 33l93 93l-95 95l33 33l95 -95l96 95l32 -32l-96 -96l96 -95z" />
    <glyph glyph-name="endash" unicode="&#x2013;" horiz-adv-x="649" 
d="M605 400l-10 -59h-519l10 59h519z" />
    <glyph glyph-name="emdash" unicode="&#x2014;" horiz-adv-x="849" 
d="M805 400l-10 -59h-719l10 59h719z" />
    <glyph glyph-name="quoteleft" unicode="&#x2018;" horiz-adv-x="197" 
d="M133 483h-81l126 216h51z" />
    <glyph glyph-name="quoteright" unicode="&#x2019;" horiz-adv-x="197" 
d="M173 699h81l-126 -216h-51z" />
    <glyph glyph-name="quotesinglbase" unicode="&#x201a;" horiz-adv-x="160" 
d="M19 112h81l-126 -217h-51z" />
    <glyph glyph-name="quotedblleft" unicode="&#x201c;" horiz-adv-x="344" 
d="M133 483h-81l126 216h51zM280 483h-81l126 216h51z" />
    <glyph glyph-name="quotedblright" unicode="&#x201d;" horiz-adv-x="344" 
d="M173 699h81l-126 -216h-51zM320 699h81l-126 -216h-51z" />
    <glyph glyph-name="quotedblbase" unicode="&#x201e;" horiz-adv-x="319" 
d="M19 112h81l-126 -217h-51zM179 112h81l-126 -217h-51z" />
    <glyph glyph-name="dagger" unicode="&#x2020;" horiz-adv-x="511" 
d="M508 489l-187 7l-126 -754h-69l140 754l-189 -7l10 57l187 -7l35 240h69l-49 -240l189 7z" />
    <glyph glyph-name="daggerdbl" unicode="&#x2021;" horiz-adv-x="512" 
d="M322 496l-84 -471l190 7l-10 -57l-187 7l-36 -240h-69l50 240l-190 -7l11 57l186 -7l84 471l-190 -7l10 57l187 -7l35 240h69l-49 -240l189 7l-10 -57z" />
    <glyph glyph-name="bullet" unicode="&#x2022;" horiz-adv-x="366" 
d="M101.5 245q-27.5 27 -27.5 68q0 36 19.5 67.5t51.5 50t67 18.5q43 0 70 -26.5t27 -67.5q0 -36 -19.5 -67.5t-51.5 -50.5t-67 -19q-42 0 -69.5 27z" />
    <glyph glyph-name="ellipsis" unicode="&#x2026;" horiz-adv-x="528" 
d="M185 7q-12 12 -12 31q0 24 18.5 42t42.5 18q19 0 31 -11.5t12 -30.5q0 -24 -18.5 -42.5t-42.5 -18.5q-19 0 -31 12zM360 7q-12 12 -12 31q0 24 18.5 42t42.5 18q19 0 31 -11.5t12 -30.5q0 -24 -18.5 -42.5t-42.5 -18.5q-19 0 -31 12zM10 7q-12 12 -12 31q0 24 18.5 42
t42.5 18q19 0 31 -11.5t12 -30.5q0 -24 -18.5 -42.5t-42.5 -18.5q-19 0 -31 12z" />
    <glyph glyph-name="perthousand" unicode="&#x2030;" horiz-adv-x="953" 
d="M148.5 669q46.5 39 107.5 39q54 0 86 -30.5t32 -81.5q0 -14 -3 -29q-11 -64 -57.5 -103.5t-107.5 -39.5q-54 0 -86 30.5t-32 82.5q0 14 3 30q11 63 57.5 102zM629 700l-534 -700h-70l534 700h70zM182.5 637.5q-27.5 -25.5 -35.5 -70.5q-2 -9 -2 -26q0 -34 18.5 -53
t50.5 -19q37 0 65 26t36 72q2 16 2 24q0 34 -18.5 53t-50.5 19q-38 0 -65.5 -25.5zM342.5 236q46.5 39 107.5 39q53 0 85.5 -30.5t32.5 -82.5q0 -14 -3 -29q-11 -64 -57.5 -103t-107.5 -39q-53 0 -85.5 30.5t-32.5 82.5q0 14 3 29q11 64 57.5 103zM663.5 236
q46.5 39 107.5 39q53 0 85.5 -30.5t32.5 -81.5q0 -13 -3 -30q-11 -64 -57.5 -103t-107.5 -39q-53 0 -85.5 30.5t-32.5 82.5q0 14 3 29q11 64 57.5 103zM376.5 204.5q-27.5 -25.5 -35.5 -71.5q-2 -9 -2 -25q0 -34 18 -52.5t50 -18.5q38 0 65.5 25.5t35.5 70.5q2 9 2 25
q0 34 -18 53t-50 19q-38 0 -65.5 -25.5zM697.5 204.5q-27.5 -25.5 -34.5 -71.5q-3 -13 -3 -27q0 -33 18.5 -51t50.5 -18q37 0 64.5 25.5t36.5 70.5q2 18 2 24q0 35 -18 54t-51 19q-38 0 -65.5 -25.5z" />
    <glyph glyph-name="guilsinglleft" unicode="&#x2039;" horiz-adv-x="265" 
d="M115 120l-68 175l130 175h71l-133 -175l72 -175h-72z" />
    <glyph glyph-name="guilsinglright" unicode="&#x203a;" horiz-adv-x="265" 
d="M154 295l-71 175h71l68 -175l-130 -175h-71z" />
    <glyph glyph-name="fraction" unicode="&#x2044;" horiz-adv-x="409" 
d="M526 700l-534 -700h-71l534 700h71z" />
    <glyph glyph-name="rupee" unicode="&#x20a8;" horiz-adv-x="1074" 
d="M517 655.5q51 -43.5 51 -116.5q0 -23 -4 -43q-13 -81 -70 -134.5t-154 -64.5l146 -297h-86l-140 294h-108l-52 -294h-70l123 699h211q102 0 153 -43.5zM497 533q0 110 -143 110h-141l-51 -292h141q85 0 131.5 38.5t58.5 106.5q4 26 4 37zM939 383q4 51 -24 83t-88 32
q-61 0 -99.5 -32t-38.5 -80q0 -27 17 -43.5t42.5 -25.5t69.5 -19q52 -12 83.5 -23.5t53.5 -35.5t22 -65q0 -52 -28.5 -93.5t-78.5 -65t-111 -23.5q-85 0 -134.5 40.5t-49.5 112.5q0 12 1 18h72q-5 -51 26.5 -83t94.5 -32q56 0 92 27t44 70q2 12 2 17q0 28 -17.5 44.5t-43 26
t-71.5 20.5q-51 12 -82 23.5t-53 34.5t-22 62q0 51 28.5 92t79.5 65t115 24q80 0 125 -40t45 -110q0 -14 -1 -21h-71z" />
    <glyph glyph-name="Euro" unicode="&#x20ac;" horiz-adv-x="818" 
d="M569 96q68 39 111 108h82q-56 -100 -149.5 -155t-209.5 -55q-78 0 -139.5 30t-99 85.5t-45.5 129.5h-104l9 50h94q0 30 6 61q4 26 12 52h-92l9 50h102q33 76 90 134t130.5 89.5t153.5 31.5q116 0 190.5 -55.5t94.5 -156.5h-82q-19 70 -73 109.5t-141 39.5
q-92 0 -169.5 -51t-120.5 -141h257l-8 -50h-268q-8 -23 -13 -52q-6 -31 -6 -61h266l-8 -50h-255q13 -85 72 -133.5t149 -48.5q87 0 155 39z" />
    <glyph glyph-name="indianrupee" unicode="&#x20b9;" horiz-adv-x="646" 
d="M504 543q-2 -14 -4 -20h141l-9 -52h-144q-20 -71 -56.5 -109.5t-98.5 -55t-163 -16.5l-16 -94q-5 -27 -5 -46q0 -50 27 -77t83 -27q127 0 153 143h66q-19 -98 -78 -148.5t-151 -50.5q-82 0 -124 39.5t-42 112.5q0 22 5 54l25 144q117 0 175.5 9t88.5 36.5t46 85.5h-335
l9 52h338l4 21l18 103h-338l10 53h544l-10 -53h-141z" />
    <glyph glyph-name="uni20BA" unicode="&#x20ba;" horiz-adv-x="812" 
d="M739 406q-38 -213 -143.5 -319.5t-291.5 -106.5q-65 0 -146 19l44 249l-177 -44l9 52l177 44l21 114l-180 -45l9 51l180 45l42 237h71l-38 -218l198 50l-9 -52l-198 -49l-20 -115l195 48l-9 -52l-196 -48l-37 -213q35 -8 76 -8q148 0 234 91t117 270h72z" />
    <glyph glyph-name="uni20BD" unicode="&#x20bd;" horiz-adv-x="613" 
d="M567 656q51 -43 51 -116q0 -23 -4 -42q-16 -90 -84.5 -145t-186.5 -55h-142l-19 -108h235l-10 -57h-235l-23 -133h-70l24 133h-85l10 57h85l19 108h-85l10 58h85l61 343h211q102 0 153 -43zM546 536q0 107 -143 107h-141l-50 -287h141q85 0 131.5 37.5t57.5 104.5
q4 17 4 38z" />
    <glyph glyph-name="uni2113" unicode="&#x2113;" horiz-adv-x="229" 
d="M231 740l-131 -740h-70l131 740h70z" />
    <glyph glyph-name="trademark" unicode="&#x2122;" horiz-adv-x="754" 
d="M331 658h-91l-54 -306h-57l56 306h-92l8 46h238zM777 704l-62 -352h-53l47 269l-166 -269h-42l-69 272l-48 -272h-53l63 352h71l71 -285l173 285h68z" />
    <glyph glyph-name="uni2126" unicode="&#x2126;" horiz-adv-x="789" 
d="M682.5 173.5q-57.5 -78.5 -144.5 -117.5h153l-11 -56h-276l11 59q102 19 176 96t95 192q6 33 6 64q0 70 -29.5 123t-82.5 81.5t-122 28.5q-80 0 -150.5 -37.5t-118.5 -105t-63 -154.5q-6 -33 -6 -64q0 -89 47.5 -148.5t127.5 -75.5l-11 -59h-276l10 56h152q-59 32 -90 91
t-31 135q0 34 6 68q19 103 80 184.5t149 127t185 45.5q85 0 152.5 -35.5t105 -100.5t37.5 -150q0 -27 -7 -71q-17 -98 -74.5 -176.5z" />
    <glyph glyph-name="estimated" unicode="&#x212e;" horiz-adv-x="764" 
d="M340 -7q-86 0 -151.5 30.5t-101.5 89.5t-36 142q0 38 7 74q18 104 72 187.5t137.5 132t187.5 48.5q91 0 154 -35.5t95 -95.5t32 -133q0 -26 -5 -59l-11 -61h-544l-30 -164q32 -54 80 -80t123 -26q73 0 138 32.5t144 99.5l29 -38q-159 -144 -320 -144zM630 550
q-24 46 -71.5 71t-112.5 25q-67 0 -126.5 -26.5t-104.5 -81.5l-29 -167h413z" />
    <glyph glyph-name="partialdiff" unicode="&#x2202;" horiz-adv-x="559" 
d="M91 382.5q47 78.5 116 126t147 47.5q55 0 87 -28t33 -96q10 62 10 103q0 161 -128 161q-34 0 -84 -13l8 44q48 13 93 13q88 0 134 -54.5t46 -160.5q0 -47 -11 -111q-22 -128 -77 -224t-130.5 -148t-157.5 -52q-70 0 -112.5 41.5t-42.5 122.5q0 29 6 62q16 88 63 166.5z
M450 384q0 56 -27 84.5t-77 28.5q-56 0 -107.5 -37t-88.5 -101.5t-51 -142.5q-4 -24 -4 -49q0 -59 27 -88t73 -29q58 0 110.5 38.5t89 102t49.5 137.5q6 30 6 56z" />
    <glyph glyph-name="uni2206" unicode="&#x2206;" horiz-adv-x="666" 
d="M434 690l172 -635l-10 -55h-626l10 55l395 635h59zM51 55h484l-145 555z" />
    <glyph glyph-name="product" unicode="&#x220f;" horiz-adv-x="736" 
d="M763 700l-10 -56h-82l-113 -644h-70l114 644h-341l-113 -644h-70l113 644h-81l11 56h642z" />
    <glyph glyph-name="summation" unicode="&#x2211;" horiz-adv-x="436" 
d="M482 635h-321l217 -295l-9 -56l-323 -298h321l-10 -55h-379l14 80l319 299l-213 300l14 80h379z" />
    <glyph glyph-name="minus" unicode="&#x2212;" horiz-adv-x="519" 
d="M475 400l-10 -59h-389l10 59h389z" />
    <glyph glyph-name="uni2215" unicode="&#x2215;" horiz-adv-x="441" 
d="M507 940l-471 -1106h-69l469 1106h71z" />
    <glyph glyph-name="uni2219" unicode="&#x2219;" horiz-adv-x="183" 
d="M12 307q-12 12 -12 31q0 24 18.5 42t42.5 18q19 0 31 -11.5t12 -30.5q0 -24 -18.5 -42.5t-42.5 -18.5q-19 0 -31 12z" />
    <glyph glyph-name="radical" unicode="&#x221a;" horiz-adv-x="750" 
d="M836 859l-641 -903h-33l-82 207l-66 -35l-16 39l132 69l75 -193l578 816h53z" />
    <glyph glyph-name="infinity" unicode="&#x221e;" horiz-adv-x="658" 
d="M617.5 460q33.5 -29 33.5 -81q0 -14 -3 -31q-12 -66 -61 -104.5t-112 -38.5q-51 0 -84 27t-62 75q-33 -45 -79 -73.5t-99 -28.5q-55 1 -88 30t-33 81q0 15 3 31q12 66 60.5 104.5t112.5 38.5q50 0 82.5 -27.5t60.5 -77.5q33 46 79.5 75.5t100.5 29.5q55 -1 88.5 -30z
M240 281.5q37 23.5 67 63.5q-26 46 -49 69.5t-58 23.5q-42 0 -70.5 -25t-36.5 -66q-2 -14 -2 -21q0 -32 20 -50t56 -18t73 23.5zM591 368q0 33 -20 51t-56 18q-38 0 -76 -25t-67 -67q25 -43 49 -65.5t60 -22.5q42 0 71 24.5t37 66.5q2 14 2 20z" />
    <glyph glyph-name="integral" unicode="&#x222b;" horiz-adv-x="253" 
d="M288.5 881q37.5 30 98.5 30h23l-16 -59h-19q-28 0 -45 -14.5t-28 -51.5l-241 -836q-19 -67 -55.5 -98t-98.5 -31h-24l16 58h22q29 0 44 15t26 56l241 836q19 65 56.5 95z" />
    <glyph glyph-name="approxequal" unicode="&#x2248;" horiz-adv-x="487" 
d="M94 317.5q38 32.5 88 32.5q26 0 44.5 -9t41.5 -27q20 -15 34.5 -22.5t32.5 -7.5q26 0 47.5 18t31.5 47h53q-22 -64 -60.5 -96.5t-88.5 -32.5q-25 0 -43.5 9t-41.5 27q-22 16 -36 23t-32 7q-25 0 -46.5 -18t-32.5 -47h-53q23 64 61 96.5zM94 517.5q38 32.5 88 32.5
q26 0 44.5 -9t41.5 -27q20 -15 34.5 -22.5t32.5 -7.5q26 0 47.5 18t31.5 47h53q-22 -64 -60.5 -96.5t-88.5 -32.5q-25 0 -43.5 9t-41.5 27q-22 16 -36 23t-32 7q-25 0 -46.5 -18t-32.5 -47h-53q23 64 61 96.5z" />
    <glyph glyph-name="notequal" unicode="&#x2260;" horiz-adv-x="664" 
d="M453 441l-143 -142h285l-10 -62h-338l-101 -100h-56l101 100h-116l11 62h168l143 142h-286l11 62h338l101 100h56l-101 -100h116l-11 -62h-168z" />
    <glyph glyph-name="lessequal" unicode="&#x2264;" horiz-adv-x="476" 
d="M181 408l217 -193h-93l-219 193l287 194h93zM48 171h342l-10 -54h-341z" />
    <glyph glyph-name="greaterequal" unicode="&#x2265;" horiz-adv-x="476" 
d="M55 215l283 194l-215 193h92l219 -194l-287 -193h-92zM46 171h342l-10 -54h-341z" />
    <glyph glyph-name="lozenge" unicode="&#x25ca;" horiz-adv-x="551" 
d="M523 349l-278 -236l-193 236l278 236zM125 348l132 -163l193 165l-132 162z" />
    <glyph glyph-name="dottedcircle" unicode="&#x25cc;" horiz-adv-x="651" 
d="M332 467.5q-12 -11.5 -31 -11.5t-31 11.5t-12 30.5t12 30.5t31 11.5t31 -11.5t12 -30.5t-12 -30.5zM453 452.5q-12 -11.5 -31 -11.5t-31 11.5t-12 30.5t12 30.5t31 11.5t31 -11.5t12 -30.5t-12 -30.5zM215 425.5q-12 -11.5 -31 -11.5t-31 11.5t-12 30.5t12 30.5t31 11.5
t31 -11.5t12 -30.5t-12 -30.5zM545 378.5q-12 -11.5 -31 -11.5t-31 11.5t-12 30.5t12 30.5t31 11.5t31 -11.5t12 -30.5t-12 -30.5zM139 326.5q-12 -11.5 -31 -11.5t-31 11.5t-12 30.5t12 30.5t31 11.5t31 -11.5t12 -30.5t-12 -30.5zM589 264.5q-12 -11.5 -31 -11.5t-31 11.5
t-12 30.5t12 30.5t31 11.5t31 -11.5t12 -30.5t-12 -30.5zM124 205.5q-12 -11.5 -31 -11.5t-31 11.5t-12 30.5t12 30.5t31 11.5t31 -11.5t12 -30.5t-12 -30.5zM579 144.5q-12 -11.5 -31 -11.5t-31 11.5t-12 30.5t12 30.5t31 11.5t31 -11.5t12 -30.5t-12 -30.5zM169 92.5
q-12 -11.5 -31 -11.5t-31 11.5t-12 30.5t12 30.5t31 11.5t31 -11.5t12 -30.5t-12 -30.5zM506 48.5q-12 -11.5 -31 -11.5t-31 11.5t-12 30.5t12 30.5t31 11.5t31 -11.5t12 -30.5t-12 -30.5zM267 16.5q-12 -11.5 -31 -11.5t-31 11.5t-12 30.5t12 30.5t31 11.5t31 -11.5
t12 -30.5t-12 -30.5zM391 2.5q-12 -11.5 -31 -11.5t-31 11.5t-12 30.5t12 30.5t31 11.5t31 -11.5t12 -30.5t-12 -30.5z" />
    <glyph glyph-name="fi" unicode="&#xfb01;" horiz-adv-x="548" 
d="M214 546h306l-97 -546h-70l86 487h-235l-86 -487h-70l86 487h-75l10 59h75l7 38q16 89 69 131t155 42l-11 -60q-68 0 -100 -26t-43 -87zM553 740.5q12 -11.5 12 -30.5q0 -25 -19 -43t-43 -18q-19 0 -30.5 11.5t-11.5 30.5q0 26 18 43.5t42 17.5q20 0 32 -11.5z" />
    <glyph glyph-name="fl" unicode="&#xfb02;" horiz-adv-x="555" 
d="M264 671q-32 -26 -43 -87l-7 -38h128l-11 -59h-127l-86 -487h-70l86 487h-76l11 59h75l7 38q16 89 69 131t155 42l-11 -60q-68 0 -100 -26zM556 740l-131 -740h-70l131 740h70z" />
    <glyph glyph-name="dvK_SSA" horiz-adv-x="786" 
d="M883 740l-9 -54h-141l-121 -686h-62l68 386h-287q-6 -3 -13.5 -6.5t-15.5 -7.5q-58 -26 -92 -46t-60.5 -49.5t-33.5 -72.5q-2 -8 -2 -25q0 -43 27 -69t77 -26q60 0 101 37.5t51 93.5h55l-48 -267h-59l29 164q-16 -29 -57 -55.5t-99 -26.5q-67 0 -106 35.5t-39 93.5
q0 16 3 34q10 54 42 92t72 61.5t108 56.5q-57 11 -94.5 48.5t-37.5 95.5q0 16 3 32q9 53 41 92t77.5 59t96.5 20q69 0 114 -36.5t45 -99.5q0 -14 -3 -31q-9 -49 -36 -84.5t-69 -63.5h219l54 305h202zM196 551q0 -52 38 -82.5t102 -33.5q51 28 81.5 60t38.5 78q2 8 2 24
q0 45 -31 71.5t-79 26.5q-53 0 -96.5 -33t-53.5 -89q-2 -16 -2 -22z" />
    <glyph glyph-name="dvJ_NYA" horiz-adv-x="796" 
d="M890 740l-9 -54h-141l-121 -686h-63l84 478h-229q39 -19 60.5 -53.5t21.5 -82.5q0 -18 -3 -38q-13 -84 -72.5 -135t-142.5 -51q-65 0 -109 27.5t-59 68.5l-29 -171h-62l47 271h59q-4 -68 36 -105.5t104 -37.5q67 0 113.5 41.5t58.5 105.5q3 17 3 31q0 61 -44 95t-116 34
h-15l10 53h378l27 155h-650l9 54h854z" />
    <glyph glyph-name="dvK" horiz-adv-x="748" 
d="M592 686l-41 -235q30 52 80.5 83.5t117.5 31.5q79 0 128.5 -49t49.5 -129q0 -21 -5 -49h-64q3 20 3 37q0 62 -37.5 98.5t-97.5 36.5q-81 0 -131.5 -53.5t-64.5 -126.5l-58 -331h-61l39 218q-32 -51 -83.5 -81.5t-119.5 -30.5q-81 0 -132 49t-51 133q0 22 5 52
q12 68 49 119.5t90.5 79t115.5 27.5q70 0 111.5 -31t55.5 -82l41 233h-506l10 54h958l-10 -54h-392zM471 338h-1q3 17 3 34q0 59 -34.5 99t-106.5 40q-46 0 -88 -21t-71.5 -60.5t-38.5 -91.5q-4 -19 -4 -40q0 -64 39 -100.5t102 -36.5q55 0 97 25.5t67 64t34 78.5z" />
    <glyph glyph-name="dvKH" horiz-adv-x="676" 
d="M127 228q-4 -26 -4 -38q0 -63 40 -99.5t112 -36.5q63 0 111 31.5t77 80.5q-37 20 -57 55t-20 82q0 24 4 44q16 93 84 148t164 55q84 0 132.5 -42.5t48.5 -117.5q0 -23 -4 -43q-16 -94 -85 -149t-164 -55q-25 0 -52 5q-36 -66 -98 -108t-143 -42q-99 0 -156 49.5
t-57 136.5q0 21 5 51l28 162h38q66 0 111.5 34t60.5 122l23 133h-300l10 54h848l-9 -54h-485l-24 -140q-19 -106 -76 -151.5t-138 -45.5h-4zM444 314q0 -56 35 -88.5t96 -32.5q71 0 121 42t62 112q3 18 3 34q0 56 -35 88t-96 32q-70 0 -120 -42t-63 -112q-3 -16 -3 -33z" />
    <glyph glyph-name="dvG" horiz-adv-x="483" 
d="M546 686h-131l-49 -282q-13 -74 -57.5 -120t-121.5 -46q-65 0 -99.5 35t-34.5 92q0 17 3 35l6 30h63l-6 -31q-3 -13 -3 -28q0 -34 18 -55.5t57 -21.5q50 0 76 30.5t34 77.5l51 284h-326l10 54h520z" />
    <glyph glyph-name="dvGH" horiz-adv-x="441" 
d="M210 604q-3 -18 -3 -35q0 -47 31 -71t97 -24h50l-10 -53h-53q-82 0 -128 -34t-56 -90q-2 -9 -2 -26q0 -54 41.5 -81.5t111.5 -27.5q61 0 114 25.5t88.5 71t45.5 102.5h54q-13 -71 -56.5 -128.5t-110 -90.5t-144.5 -33q-98 0 -154 39t-56 110q0 17 3 35q11 64 58.5 104.5
t108.5 48.5l1 2q-46 7 -72.5 34.5t-26.5 79.5q0 20 4 40l14 84h-134l10 54h622l-10 -54h-424z" />
    <glyph glyph-name="dvNG" horiz-adv-x="649" 
d="M744 740l-10 -54h-213l-23 -133l-4 -19v-2l-5 -26h-173q-57 0 -100 -20.5t-52 -72.5q-2 -14 -2 -19q0 -38 29.5 -56t75.5 -18h45q77 0 127.5 -33t50.5 -102q0 -16 -3 -34q-13 -74 -73.5 -119t-160.5 -45t-156.5 45t-56.5 117q0 16 3 31h64q-2 -9 -2 -26q0 -53 39 -85
t114 -32q70 0 114.5 32.5t53.5 83.5q2 9 2 26q0 51 -38 72.5t-97 21.5h-41q-64 0 -109 28t-45 86q0 13 3 28q12 73 69.5 105.5t133.5 32.5h132l23 133h-432l10 54h707zM624 430.5q10 -12.5 7 -30.5q-2 -19 -17 -31.5t-34 -12.5q-16 0 -26.5 10t-10.5 25q0 21 15.5 36.5
t36.5 15.5q19 0 29 -12.5zM268 -98l87 -193h-66l-85 193h64z" />
    <glyph glyph-name="dvC" horiz-adv-x="468" 
d="M674 740l-10 -54h-638l10 54h638zM433.5 183.5q45.5 25.5 76.5 68t39 93.5h55q-10 -67 -49.5 -122t-101 -87t-132.5 -32q-84 0 -138.5 43.5t-54.5 120.5q0 11 4 39q11 59 46 104t89 69h-198l9 51h361l-9 -51h-33q-79 0 -135 -46.5t-68 -117.5q-3 -16 -3 -31
q0 -60 41 -93.5t104 -33.5q52 0 97.5 25.5z" />
    <glyph glyph-name="dvCH" horiz-adv-x="813" 
d="M199 574q-3 -19 -3 -35q0 -47 30 -71t95 -24h23l-9 -53h-22q-63 0 -108 -23t-67.5 -60.5t-22.5 -82.5q0 -68 62.5 -104.5t166.5 -36.5q91 0 167.5 32t127.5 91.5t65 140.5q4 20 4 41q0 56 -29 86t-71 30q-46 0 -86.5 -31t-51.5 -95q-3 -19 -3 -41q0 -30 4 -55h-55
q-4 32 -4 49q0 25 5 53q15 86 72.5 127.5t128.5 41.5q65 0 106.5 -40t41.5 -115q0 -21 -5 -53q-17 -97 -76.5 -169t-150.5 -110t-200 -38q-83 0 -147.5 21.5t-101 63.5t-36.5 100q0 11 4 37q12 69 61 111.5t115 52.5v3q-45 7 -71.5 34.5t-26.5 79.5q0 20 4 40l21 114h-132
l9 54h874l-10 -54h-678z" />
    <glyph glyph-name="dvJ" horiz-adv-x="557" 
d="M756 740l-9 -54h-720l9 54h720zM705 447h-241l-20 -112q-15 -88 -73 -142t-144 -54q-71 0 -113 42t-42 111q0 24 4 44l29 166h64l-30 -167q-3 -18 -3 -34q0 -48 26 -76.5t72 -28.5q57 0 97 38.5t51 100.5l29 167h303z" />
    <glyph glyph-name="dvJH" horiz-adv-x="566" 
d="M526 686l-23 -133l-4 -19v-2l-5 -26h-175q-56 0 -100 -20.5t-53 -73.5q-2 -14 -2 -18q0 -38 30 -56t77 -18h45h363l-8 -49l-224 1q44 -33 44 -94q0 -15 -3 -32q-12 -66 -63.5 -108.5t-136.5 -42.5q-75 0 -114.5 31t-50.5 63l-29 -164h-61l44 247h57q-2 -55 35 -91.5
t112 -36.5q73 0 112 39t39 94q0 46 -34.5 71t-100.5 25h-51q-63 2 -104.5 30.5t-41.5 83.5q0 14 3 29q12 73 70.5 105t136.5 32h131l23 133h-431l10 54h710l-9 -54h-218z" />
    <glyph glyph-name="dvNY" horiz-adv-x="553" 
d="M726 740l-10 -54h-690l10 54h690zM466 516.5q48 -50.5 48 -130.5q0 -15 -1 -22h146l-10 -55h-145q-24 -91 -92 -150.5t-167 -59.5q-63 0 -105.5 23.5t-63 61.5t-20.5 83h60q5 -47 39 -80t99 -33q80 0 131.5 51.5t65.5 128.5q4 28 4 40q0 61 -35 99.5t-103 38.5
q-66 0 -112 -34t-65 -80h-61q24 72 88.5 120.5t159.5 48.5q91 0 139 -50.5z" />
    <glyph glyph-name="dvTT" horiz-adv-x="647" 
d="M212.5 452.5q-73.5 -52.5 -91.5 -152.5q-4 -26 -4 -38q0 -70 48 -113.5t127 -43.5q90 0 154 56.5t79 146.5h61q-13 -77 -54 -135.5t-104.5 -91t-142.5 -32.5q-68 0 -121 26t-82 73t-29 108q0 25 4 46q22 127 113 192.5t222 65.5h32l22 126h-423l9 54h710l-10 -54h-223
l-32 -181h-91q-100 0 -173.5 -52.5zM298 -37l89 -193h-66l-86 193h63z" />
    <glyph glyph-name="dvTTH" horiz-adv-x="673" 
d="M420 686l-24 -135q86 -9 140 -65t54 -140q0 -21 -5 -49q-13 -73 -56.5 -128.5t-108.5 -86t-140 -30.5q-65 0 -116 26t-80 73t-29 109q0 26 4 47q12 70 51.5 123t97.5 84.5t125 37.5l25 134h-336l10 54h735l-10 -54h-337zM525 338q0 71 -46 115.5t-123 44.5
q-56 0 -106 -24.5t-84 -68.5t-44 -100q-3 -19 -3 -38q0 -71 46 -116t122 -45q56 0 106.5 24.5t84.5 68.5t44 100q3 20 3 39zM297 -34l88 -193h-66l-86 193h64z" />
    <glyph glyph-name="dvDD" horiz-adv-x="578" 
d="M216 485.5q-43 -20.5 -52 -72.5q-2 -14 -2 -19q0 -38 29.5 -56t75.5 -18h45q77 0 127.5 -33t50.5 -102q0 -16 -3 -34q-13 -74 -73.5 -119t-160.5 -45t-156.5 45t-56.5 117q0 16 3 31h64q-2 -9 -2 -26q0 -53 39 -85t114 -32q70 0 114.5 32.5t53.5 83.5q2 9 2 26
q0 51 -38 72.5t-97 21.5h-41q-64 0 -109 28t-45 86q0 13 3 28q12 73 69.5 105.5t133.5 32.5h127l23 133h-426l9 54h635l-10 -54h-146l-32 -180h-168q-57 0 -100 -20.5zM268 -98l87 -193h-66l-85 193h64z" />
    <glyph glyph-name="dvDDH" horiz-adv-x="636" 
d="M279 490q-61 -26 -103 -78t-55 -127q-4 -21 -4 -45q0 -81 53.5 -130t145.5 -49q77 0 133.5 40.5t68.5 104.5q2 16 2 24q0 40 -25.5 65t-67.5 25q-45 0 -78.5 -26.5t-40.5 -70.5q-2 -14 -2 -21h-48q0 16 3 28q11 64 59.5 101t116.5 37q63 0 101.5 -37t38.5 -96
q0 -14 -3 -31q-10 -56 -46.5 -99.5t-93 -68t-126.5 -24.5q-74 0 -131.5 28t-90 79.5t-32.5 118.5q0 21 5 51q16 90 65.5 151.5t122 91.5t156.5 30h45l22 124h-445l10 54h695l-10 -54h-190l-29 -170h-90q-71 0 -132 -26zM306 -73l87 -193h-66l-85 193h64z" />
    <glyph glyph-name="dvNN" horiz-adv-x="573" 
d="M643 686h-129l-53 -298q-15 -87 -69.5 -140.5t-139.5 -53.5q-74 0 -117 41.5t-43 110.5q0 22 4 42l53 298h-123l10 54h617zM451 686h-239l-53 -304q-3 -16 -3 -33q0 -46 26 -73.5t73 -27.5q55 0 93.5 37t49.5 97z" />
    <glyph glyph-name="dvT" horiz-adv-x="395" 
d="M26 686l10 54h571l-10 -54h-571zM274 2q-103 0 -164.5 51t-61.5 146q0 21 5 53q22 125 109.5 186t219.5 61h182l-10 -55h-178q-105 0 -173 -49t-86 -146q-4 -23 -4 -47q0 -71 44.5 -109.5t129.5 -38.5h22l-9 -52h-26z" />
    <glyph glyph-name="dvTH" horiz-adv-x="478" 
d="M634 349q-12 -72 -57.5 -128t-111 -87t-138.5 -31q-116 0 -180.5 59t-64.5 158q0 48 15 100h100q92 0 158 33t80 118q2 9 2 26q0 43 -26 70t-74 27q-71 0 -111.5 -48.5t-39.5 -125.5h-58q1 65 27.5 117t76 82t115.5 30q70 0 110.5 -40t40.5 -104q0 -18 -3 -36
q-17 -100 -94.5 -148.5t-189.5 -48.5q-48 0 -64 1q-5 -28 -5 -49q0 -79 51 -122.5t140 -43.5q56 0 108.5 24t89.5 67.5t47 99.5h56z" />
    <glyph glyph-name="dvD" horiz-adv-x="608" 
d="M693 686h-150l-31 -173h-140q-90 0 -156.5 -45.5t-81.5 -132.5q-3 -19 -3 -37q0 -63 39 -100.5t106 -37.5q38 0 76.5 16t68 49.5t37.5 82.5h58l-55 -319h-63l37 206q-28 -40 -77 -63.5t-106 -23.5q-84 0 -135.5 49t-51.5 133q0 21 5 49q20 114 104.5 171.5t201.5 57.5h81
l22 118h-452l10 54h666zM447 -97l87 -193h-66l-85 193h64z" />
    <glyph glyph-name="dvDH" horiz-adv-x="436" 
d="M530 212.5q-41 -51.5 -107 -80.5t-151 -29q-90 0 -145 37t-55 107q0 15 3 31q12 63 55 99.5t95 43.5v2q-45 11 -74.5 44t-29.5 87q0 17 3 35q12 71 64.5 115.5t126.5 44.5q66 0 103.5 -33.5t37.5 -91.5q0 -25 -10 -62h-50q7 24 7 46q0 41 -24 64t-69 23
q-38 0 -68.5 -19.5t-48 -52.5t-17.5 -71q0 -48 34 -75t97 -27h64l-10 -53h-53q-81 0 -125 -39t-44 -101q0 -50 41 -75t104 -25q97 0 163 48.5t80 126.5h56q-12 -68 -53 -119.5z" />
    <glyph glyph-name="dvN" horiz-adv-x="518" 
d="M721 740l-10 -54h-685l10 54h685zM137 456.5q64 49.5 157 49.5h386l-10 -54h-267q44 -41 44 -107q0 -16 -3 -34q-14 -81 -75.5 -131t-143.5 -50q-77 0 -124 43t-47 112q0 17 3 35q16 87 80 136.5zM363 422.5q-32 29.5 -84 29.5q-62 0 -107.5 -37.5t-55.5 -97.5
q-2 -9 -2 -26q0 -48 32 -77t86 -29q44 0 81.5 22t59.5 59t22 80q0 47 -32 76.5z" />
    <glyph glyph-name="dvP" horiz-adv-x="385" 
d="M167 452q-5 -32 -5 -52q0 -66 34.5 -102t101.5 -36q73 0 122.5 46t62.5 115l53 1q-16 -96 -80.5 -156.5t-164.5 -60.5q-92 0 -142.5 50.5t-50.5 138.5q0 30 6 61l42 229h-120l10 54h557l-10 -54h-374z" />
    <glyph glyph-name="dvPH" horiz-adv-x="747" 
d="M574 686l-41 -235q31 52 83 83.5t121 31.5q79 0 126.5 -47.5t47.5 -128.5q0 -21 -5 -51h-64q3 20 3 36q0 63 -37.5 99.5t-97.5 36.5q-56 0 -98.5 -27t-67.5 -69t-33 -89v1l-58 -327h-63l52 299q-30 -44 -75 -68t-101 -24q-83 0 -126 46t-43 129q0 31 6 67l43 237h-120
l10 54h941l-10 -54h-393zM510 686h-301l-42 -237q-6 -31 -6 -59q0 -61 31.5 -94.5t95.5 -33.5q67 0 113.5 43t61.5 110z" />
    <glyph glyph-name="dvB" horiz-adv-x="429" 
d="M634 740l-9 -54h-599l10 54h598zM472.5 549.5q47.5 -27.5 70 -72.5t22.5 -98q0 -20 -3 -40q-11 -65 -48.5 -120t-98 -87.5t-135.5 -32.5q-63 0 -112 24t-76.5 68t-27.5 103q0 23 4 43q12 71 52.5 125.5t101.5 84.5t132 30t118.5 -27.5zM514 372q0 66 -41.5 112t-121.5 46
t-143 -49l243 -262q24 25 39.5 56t20.5 62q3 18 3 35zM119 298q0 -70 47 -111t119 -41q82 0 142 50l-244 262q-48 -51 -61 -123q-3 -19 -3 -37z" />
    <glyph glyph-name="dvBH" horiz-adv-x="511" 
d="M630 398h-196l-15 -85q-17 -98 -70.5 -150t-134.5 -52q-70 0 -111 37.5t-41 99.5q0 17 3 33q15 79 74 124.5t142 45.5h102l17 100q5 30 5 49q0 93 -82 93q-45 0 -78 -30.5t-43 -84.5q-3 -18 -3 -40h-63q-1 20 2 42q14 77 65 123t126 46q69 0 102.5 -38t33.5 -106
q0 -30 -6 -63l-16 -91h196zM373 398h-100q-57 0 -97.5 -31.5t-50.5 -85.5q-2 -9 -2 -25q0 -41 26.5 -65.5t70.5 -24.5q53 0 89.5 38t48.5 106z" />
    <glyph glyph-name="dvM" horiz-adv-x="507" 
d="M454 686l-42 -235h224l-9 -53h-224l-15 -85q-17 -98 -70.5 -150t-134.5 -52q-69 0 -110 36.5t-41 98.5q0 17 3 35q13 79 72.5 124.5t141.5 45.5h103l41 235h-367l10 54h651l-10 -54h-223zM342 398h-101q-63 0 -105.5 -39t-42.5 -103q0 -41 26.5 -65.5t70.5 -24.5
q52 0 88 38t49 106z" />
    <glyph glyph-name="dvY" horiz-adv-x="458" 
d="M140 396q-5 -32 -5 -53q0 -80 49.5 -124.5t135.5 -44.5q57 0 107.5 24t84.5 67t44 99h58q-11 -70 -51.5 -125.5t-105.5 -87.5t-145 -32q-111 0 -175.5 58.5t-64.5 160.5q0 30 6 63q3 18 10 44h16q89 0 145 37.5t72 128.5l13 75h-308l10 54h645l-10 -54h-274l-15 -85
q-17 -99 -78.5 -145.5t-161.5 -48.5q-2 -8 -2 -11z" />
    <glyph glyph-name="dvR" horiz-adv-x="536" 
d="M622 686h-129l-18 -107q-20 -113 -87 -171.5t-177 -58.5h-62l-26 -146q-5 -25 -5 -43q0 -52 28.5 -83t82.5 -31q58 0 97 39t50 106l3 17h62l-2 -16q-16 -93 -72 -147t-142 -54q-80 0 -125 44.5t-45 118.5q0 30 5 52l34 196h107q87 0 140.5 44.5t69.5 132.5l19 107h-403
l10 54h594zM225 -97l88 -193h-66l-85 193h63z" />
    <glyph glyph-name="dvL" horiz-adv-x="678" 
d="M20 686l10 54h855l-9 -54h-856zM253 79q-97 0 -148 52t-51 138q0 23 5 55q18 104 82 164t156 60q75 0 111 -45t39 -108h2q26 64 77 108.5t129 44.5q76 0 118.5 -48t42.5 -128q0 -27 -4 -51h-65q4 20 4 44q0 57 -28.5 91.5t-84.5 34.5q-71 0 -118 -54t-63 -146l-2 -13h-54
l1 13q7 42 7 67q0 63 -28 98t-84 35q-70 0 -115.5 -47t-58.5 -123q-4 -21 -4 -45q0 -65 36.5 -102.5t108.5 -37.5q9 0 29 2l-10 -57q-24 -2 -30 -2z" />
    <glyph glyph-name="dvV" horiz-adv-x="412" 
d="M26 686l10 54h594l-10 -54h-594zM512 222.5q-35 -52.5 -95 -85.5t-140 -33q-96 0 -154 52t-58 139q0 25 4 48q12 68 51.5 119.5t99.5 79.5t131 28t118 -27.5t69.5 -71.5t22.5 -95q0 -24 -4 -43q-10 -58 -45 -110.5zM127 302q0 -68 43 -107t114 -39q60 0 106 27t72.5 68.5
t34.5 84.5q3 18 3 37q0 62 -38 103.5t-115 41.5q-51 0 -97 -22t-78 -62.5t-42 -94.5q-3 -19 -3 -37z" />
    <glyph glyph-name="dvSH" horiz-adv-x="534" 
d="M492 705q48 -44 48 -120q0 -25 -4 -46q-19 -102 -96 -156.5t-184 -54.5h-103l-21 -120q-4 -20 -4 -44q0 -54 29 -85.5t87 -31.5q62 0 105 43.5t55 117.5h62q-14 -98 -72 -157t-154 -59q-86 0 -131.5 44.5t-45.5 121.5q0 22 5 54l30 171h148q86 0 149.5 42t77.5 120
q3 17 3 31q0 54 -32 85.5t-84 31.5q-50 0 -88.5 -25.5t-59 -69t-20.5 -98.5h-63q2 73 32.5 129.5t83.5 88t121 31.5q78 0 126 -44z" />
    <glyph glyph-name="dvSS" horiz-adv-x="388" 
d="M207 686l322 -314q-21 -68 -81 -118.5t-155 -50.5q-91 0 -143 51.5t-52 140.5q0 32 5 57l43 234h-120l10 54h558l-9 -54h-378zM197 634l-32 -184q-5 -28 -5 -49q0 -67 36.5 -105t100.5 -38t107 31.5t65 75.5z" />
    <glyph glyph-name="dvS" horiz-adv-x="527" 
d="M426.5 484q-28.5 -43 -67.5 -69h283l-10 -52h-482l-28 -160q-4 -20 -4 -41q0 -54 28.5 -85t84.5 -31q61 0 100 43.5t49 112.5h62q-12 -94 -69 -152.5t-148 -58.5q-82 0 -126 45.5t-44 122.5q0 27 4 50l36 202h98q86 0 140.5 47.5t69.5 129.5l18 98h-395l10 54h663
l-10 -54h-205l-18 -98q-11 -61 -39.5 -104z" />
    <glyph glyph-name="dvH" horiz-adv-x="586" 
d="M690 740l-10 -54h-145l-22 -130l-9 -47h-186q-51 0 -88.5 -21.5t-45.5 -67.5q-2 -12 -2 -17q0 -28 18.5 -48t49.5 -29q29 6 59 6q64 0 106.5 -23.5t63 -60t20.5 -75.5h-61q-4 42 -38 74.5t-100 32.5q-51 0 -92.5 -22.5t-67.5 -60t-34 -81.5q-3 -18 -3 -36q0 -58 35.5 -93
t103.5 -35q64 0 110 32t65 74h62q-14 -42 -47 -78.5t-83 -59t-111 -22.5q-94 0 -146 50.5t-52 128.5q0 23 4 42q11 63 49.5 112.5t96.5 75.5q-31 14 -50 39.5t-19 61.5q0 7 2 23q12 63 61.5 94t123.5 31h143l23 130h-438l9 54h645zM247 -187l88 -193h-66l-86 193h64z" />
    <glyph glyph-name="dvLL" horiz-adv-x="999" 
d="M18 686l10 54h1064l-10 -54h-1064zM382.5 147.5q-61.5 -41.5 -139.5 -41.5q-84 0 -136.5 49t-52.5 130q0 24 4 44q12 68 49.5 119.5t93 80t117.5 28.5q79 0 125 -40t58 -104h2q34 64 92 104t137 40q84 0 136 -49t52 -131q0 -25 -4 -48q-11 -65 -48.5 -115.5t-93 -79
t-118.5 -28.5q-78 0 -126.5 42t-54.5 105h-3q-28 -64 -89.5 -105.5zM118 294q0 -60 38.5 -96t102.5 -36q74 0 128 46.5t68 120.5q3 20 3 37q0 61 -37 98t-102 37q-74 0 -129.5 -47.5t-68.5 -124.5q-3 -18 -3 -35zM516 294q0 -60 37 -96t102 -36q73 0 129.5 46.5t69.5 120.5
q3 20 3 36q0 62 -38.5 99t-101.5 37q-75 0 -129.5 -48t-68.5 -124q-3 -18 -3 -35z" />
    <glyph glyph-name="dvK_SS" horiz-adv-x="522" 
d="M317.5 379.5q-7.5 -3.5 -15.5 -7.5q-58 -26 -92 -46t-60.5 -49.5t-33.5 -72.5q-2 -8 -2 -25q0 -43 27 -69t77 -26q60 0 101 37.5t51 93.5h55l-48 -267h-59l29 164q-16 -29 -57 -55.5t-99 -26.5q-67 0 -106 35.5t-39 93.5q0 16 3 34q10 54 42 92t72 61.5t108 56.5
q-57 11 -94.5 48.5t-37.5 95.5q0 16 3 32q9 53 41 92t77.5 59t96.5 20q69 0 114 -36.5t45 -99.5q0 -14 -3 -31q-9 -49 -36 -84.5t-69 -63.5h239l-9 -49h-307q-6 -3 -13.5 -6.5zM196 551q0 -52 38 -82.5t102 -33.5q51 28 81.5 60t38.5 78q2 8 2 24q0 45 -31 71.5t-79 26.5
q-53 0 -96.5 -33t-53.5 -89q-2 -16 -2 -22z" />
    <glyph glyph-name="dvJ_NY" horiz-adv-x="532" 
d="M767 740l-9 -54h-731l9 54h731zM272 531h458l-9 -53h-310q39 -19 60.5 -53.5t21.5 -82.5q0 -18 -3 -38q-13 -84 -72.5 -135t-142.5 -51q-65 0 -109 27.5t-59 68.5l-29 -171h-62l47 271h59q-4 -68 36 -105.5t104 -37.5q67 0 113.5 41.5t58.5 105.5q3 17 3 31q0 61 -44 95
t-116 34h-15z" />
    <glyph glyph-name="dvKx" horiz-adv-x="748" 
d="M592 686l-41 -235q30 52 80.5 83.5t117.5 31.5q79 0 128.5 -49t49.5 -129q0 -21 -5 -49h-64q3 20 3 37q0 62 -37.5 98.5t-97.5 36.5q-81 0 -131.5 -53.5t-64.5 -126.5l-58 -331h-61l39 218q-32 -51 -83.5 -81.5t-119.5 -30.5q-81 0 -132 49t-51 133q0 22 5 52
q12 68 49 119.5t90.5 79t115.5 27.5q70 0 111.5 -31t55.5 -82l41 233h-506l10 54h958l-10 -54h-392zM471 338h-1q3 17 3 34q0 59 -34.5 99t-106.5 40q-46 0 -88 -21t-71.5 -60.5t-38.5 -91.5q-4 -19 -4 -40q0 -64 39 -100.5t102 -36.5q55 0 97 25.5t67 64t34 78.5z
M235.5 -59q-15.5 -13 -35.5 -13q-17 0 -28.5 10.5t-11.5 27.5q0 22 17 38t39 16q20 0 31 -13.5t8 -33.5q-4 -19 -19.5 -32z" />
    <glyph glyph-name="dvKHx" horiz-adv-x="676" 
d="M127 228q-4 -26 -4 -38q0 -63 40 -99.5t112 -36.5q63 0 111 31.5t77 80.5q-37 20 -57 55t-20 82q0 24 4 44q16 93 84 148t164 55q84 0 132.5 -42.5t48.5 -117.5q0 -23 -4 -43q-16 -94 -85 -149t-164 -55q-25 0 -52 5q-36 -66 -98 -108t-143 -42q-99 0 -156 49.5
t-57 136.5q0 21 5 51l28 162h38q66 0 111.5 34t60.5 122l23 133h-300l10 54h848l-9 -54h-485l-24 -140q-19 -106 -76 -151.5t-138 -45.5h-4zM444 314q0 -56 35 -88.5t96 -32.5q71 0 121 42t62 112q3 18 3 34q0 56 -35 88t-96 32q-70 0 -120 -42t-63 -112q-3 -16 -3 -33z
M252.5 -166q-15.5 -13 -35.5 -13q-17 0 -28.5 10.5t-11.5 27.5q0 22 17 38t39 16q20 0 31 -13.5t8 -33.5q-4 -19 -19.5 -32z" />
    <glyph glyph-name="dvGx" horiz-adv-x="483" 
d="M546 686h-131l-49 -282q-13 -74 -57.5 -120t-121.5 -46q-65 0 -99.5 35t-34.5 92q0 17 3 35l6 30h63l-6 -31q-3 -13 -3 -28q0 -34 18 -55.5t57 -21.5q50 0 76 30.5t34 77.5l51 284h-326l10 54h520zM192.5 68q-15.5 -13 -35.5 -13q-17 0 -28.5 10.5t-11.5 27.5q0 22 17 38
t39 16q20 0 31 -13.5t8 -33.5q-4 -19 -19.5 -32z" />
    <glyph glyph-name="dvJx" horiz-adv-x="557" 
d="M756 740l-9 -54h-720l9 54h720zM705 447h-241l-20 -112q-15 -88 -73 -142t-144 -54q-71 0 -113 42t-42 111q0 24 4 44l29 166h64l-30 -167q-3 -18 -3 -34q0 -48 26 -76.5t72 -28.5q57 0 97 38.5t51 100.5l29 167h303zM232.5 -26q-15.5 -13 -35.5 -13q-17 0 -28.5 10.5
t-11.5 27.5q0 22 17 38t39 16q20 0 31 -13.5t8 -33.5q-4 -19 -19.5 -32z" />
    <glyph glyph-name="dvPHx" horiz-adv-x="747" 
d="M574 686l-41 -235q31 52 83 83.5t121 31.5q79 0 126.5 -47.5t47.5 -128.5q0 -21 -5 -51h-64q3 20 3 36q0 63 -37.5 99.5t-97.5 36.5q-56 0 -98.5 -27t-67.5 -69t-33 -89v1l-58 -327h-63l52 299q-30 -44 -75 -68t-101 -24q-83 0 -126 46t-43 129q0 31 6 67l43 237h-120
l10 54h941l-10 -54h-393zM510 686h-301l-42 -237q-6 -31 -6 -59q0 -61 31.5 -94.5t95.5 -33.5q67 0 113.5 43t61.5 110zM244.5 44q-15.5 -13 -35.5 -13q-17 0 -28.5 10.5t-11.5 27.5q0 22 17 38t39 16q20 0 31 -13.5t8 -33.5q-4 -19 -19.5 -32z" />
    <glyph glyph-name="dvReph" horiz-adv-x="0" 
d="M-176 727l16 90q15 87 63 136.5t128 49.5q61 0 94.5 -32t33.5 -87q0 -21 -4 -40h-57q3 14 3 26q0 36 -21 57.5t-57 21.5q-100 0 -123 -132l-16 -90h-60z" />
    <glyph glyph-name="dvEyelash" horiz-adv-x="278" 
d="M-7 686l10 54h374l-9 -54h-375zM338 398q-18 -8 -47.5 -13.5t-60.5 -5.5q-84 0 -142.5 37.5t-58.5 116.5q0 18 3 37h61q-2 -10 -2 -27q0 -60 45.5 -88t111.5 -28q23 0 38.5 3t36.5 8z" />
    <glyph glyph-name="dvRashtrasign" horiz-adv-x="0" 
d="M-87 -97l-118 154l-174 -154h-72l203 179h86l140 -179h-65z" />
    <glyph glyph-name="dvK_RA" horiz-adv-x="1002" 
d="M592 686l-41 -235q30 52 80.5 83.5t117.5 31.5q79 0 128.5 -49t49.5 -129q0 -22 -5 -50q-19 -108 -88 -168.5t-162 -60.5q-31 0 -59 7l9 52q16 -5 46 -5q69 0 122.5 47t67.5 129q3 20 3 37q0 62 -37.5 98.5t-97.5 36.5q-81 0 -131.5 -53.5t-64.5 -126.5l-58 -331h-61
l39 222q-27 -41 -62 -66l-247 -202h-72l195 158q-6 -1 -19 -1q-82 0 -131.5 47.5t-49.5 129.5q0 21 5 51q12 68 49 119.5t90.5 79.5t115.5 28q70 0 111.5 -31t55.5 -82l41 233h-506l10 54h1060l-9 -54h-495zM472 344q2 18 2 26q0 60 -34.5 100.5t-107.5 40.5q-46 0 -88 -21
t-71.5 -60.5t-38.5 -91.5q-4 -19 -4 -41q0 -64 38.5 -100t101.5 -36q37 0 71 13l13 10l5 -2q44 22 72.5 63t37.5 85z" />
    <glyph glyph-name="dvKH_RA" horiz-adv-x="926" 
d="M1020 740l-10 -54h-140l-120 -686h-64l41 236q-27 -42 -72 -67.5t-103 -25.5q-23 0 -40 4q-37 -60 -88 -96l-234 -197h-72v4l174 143q-9 -1 -27 -1q-96 0 -150.5 48t-54.5 133q0 22 5 54l28 162h38q145 0 172 156l23 133h-300l10 54h984zM806 686h-416l-24 -140
q-19 -106 -76 -151.5t-138 -45.5h-4l-21 -121q-4 -26 -4 -38q0 -63 40 -99.5t112 -36.5q61 0 109.5 31.5t78.5 80.5q-35 21 -55 58.5t-20 86.5q0 24 4 44q10 59 42.5 103.5t80 68.5t102.5 24q61 0 98 -25.5t51 -67.5zM686 236.5q45 42.5 59 99.5l4 23q1 6 1 19
q0 52 -32 87.5t-96 35.5t-113.5 -41t-61.5 -110q-3 -18 -3 -33q0 -58 36 -90.5t92 -32.5q69 0 114 42.5z" />
    <glyph glyph-name="dvG_RA" horiz-adv-x="727" 
d="M821 740l-10 -54h-140l-120 -686h-63l47 266l-336 -286h-77l424 355l61 351h-192l-40 -233q-13 -73 -57.5 -119t-122.5 -46q-65 0 -99 35.5t-34 92.5q0 18 3 37l6 27h62l-6 -31q-3 -13 -3 -28q0 -35 18.5 -56.5t57.5 -21.5q49 0 75.5 31t34.5 77l42 235h-326l10 54h785z
" />
    <glyph glyph-name="dvGH_RA" horiz-adv-x="714" 
d="M798 686h-140l-120 -686h-65l42 235q-30 -42 -72 -72l-264 -218h-73l208 167q-22 -3 -47 -3q-88 0 -142.5 39t-54.5 110q0 16 3 34q11 64 59 105t109 49v2q-46 7 -72.5 34.5t-26.5 79.5q0 20 4 40l15 84h-135l10 54h772zM594 686h-369l-15 -82q-3 -18 -3 -33
q0 -48 31.5 -72.5t101.5 -24.5h45l-9 -53h-48q-94 0 -143 -43t-49 -108q0 -53 42 -80.5t111 -27.5q55 0 107 24t89 67.5t50 98.5z" />
    <glyph glyph-name="dvNG_RA" horiz-adv-x="650" 
d="M744 740l-10 -54h-212l-23 -133l-4 -19v-2l-5 -26h-174q-57 0 -100 -20.5t-52 -72.5q-2 -14 -2 -19q0 -38 29.5 -56t75.5 -18h45q77 0 127.5 -33t50.5 -102q0 -16 -3 -34q-11 -62 -56.5 -105t-120.5 -55l125 -159h-65l-118 154l-174 -154h-72l182 161q-70 13 -109 55
t-39 102q0 15 3 30h64q-2 -9 -2 -26q0 -53 39 -85t114 -32q70 0 114.5 32.5t53.5 83.5q2 9 2 26q0 51 -38 72.5t-97 21.5h-41q-64 0 -109 28t-45 86q0 13 3 28q12 73 69.5 105.5t133.5 32.5h133l23 133h-432l9 54h707zM622.5 433q10.5 -10 10.5 -25q0 -21 -16 -36.5
t-37 -15.5q-19 0 -29 12.5t-7 31.5q4 18 18.5 30.5t33.5 12.5q16 0 26.5 -10z" />
    <glyph glyph-name="dvC_RA" horiz-adv-x="730" 
d="M814 686h-141l-120 -686h-64l39 219q-28 -40 -71 -69l-238 -196h-71l189 153q-9 -1 -26 -1q-80 0 -131 43.5t-51 119.5q0 19 3 38q11 59 46 104t89 69h-198l9 51h361l-9 -51h-33q-79 0 -134.5 -46.5t-68.5 -117.5q-3 -16 -3 -31q0 -60 41 -93.5t104 -33.5q46 0 90 22l4 3
h1q46 23 77 65.5t41 93.5l61 344h-584l10 54h788z" />
    <glyph glyph-name="dvCH_RA" horiz-adv-x="813" 
d="M671 686l-23 -134q53 -9 85.5 -48t32.5 -105q0 -21 -5 -53q-22 -126 -113 -207.5t-225 -102.5l128 -162h-68l-119 154l-174 -154h-68l177 156q-113 7 -181.5 55.5t-68.5 128.5q0 11 4 37q12 69 61 111.5t115 52.5v3q-45 7 -71.5 34.5t-26.5 79.5q0 20 4 40l21 114h-132
l9 54h874l-10 -54h-226zM611 686h-392l-20 -112q-3 -19 -3 -35q0 -47 30 -71t95 -24h23l-9 -53h-22q-63 0 -108 -23t-67.5 -60.5t-22.5 -82.5q0 -68 62.5 -104.5t166.5 -36.5q91 0 167.5 32t127.5 91.5t65 140.5q4 20 4 41q0 56 -29 86t-71 30q-46 0 -86.5 -31t-51.5 -95
q-3 -19 -3 -41q0 -30 4 -55h-55q-4 32 -4 49q0 25 5 53q13 76 60.5 117.5t110.5 49.5z" />
    <glyph glyph-name="dvJ_RA" horiz-adv-x="835" 
d="M920 686h-141l-120 -686h-60l44 259l-329 -289h-74l414 357l22 124h-214l-8 -46q-15 -88 -72 -142t-140 -54q-75 0 -117 41.5t-42 110.5q0 24 4 44l18 99h64l-18 -99q-3 -18 -3 -35q0 -48 25.5 -76t72.5 -28q57 0 97 38t51 101l17 99h275l32 182h-692l10 54h893z" />
    <glyph glyph-name="dvJH_RA" horiz-adv-x="908" 
d="M992 686h-141l-121 -686h-61l26 148l-228 -253h-67l308 331l3 16l1 10l3 19l-268 1q44 -33 44 -93q0 -15 -3 -33q-12 -66 -63.5 -108.5t-136.5 -42.5q-75 0 -114.5 31t-50.5 63l-29 -164h-61l44 247h57q-2 -55 35 -91.5t112 -36.5q73 0 112 39t39 94q0 46 -34.5 71
t-100.5 25h-51q-63 2 -104.5 30.5t-41.5 83.5q0 14 3 29q12 73 70.5 105t136.5 32h131l23 133h-431l10 54h959zM788 686h-262l-23 -133l-4 -19v-2l-5 -26h-175q-56 0 -100 -20.5t-53 -73.5q-2 -14 -2 -18q0 -38 30 -56t77 -18h45h408z" />
    <glyph glyph-name="dvNY_RA" horiz-adv-x="851" 
d="M936 686h-141l-121 -686h-62l33 191l-303 -267h-69l384 334l12 71h-161q-21 -90 -87 -147.5t-167 -57.5q-64 0 -109 24t-66.5 62.5t-17.5 81.5h60q0 -28 15.5 -54t46.5 -42.5t76 -16.5q79 0 130.5 48.5t64.5 120.5q3 18 3 34q0 58 -34.5 94t-103.5 36q-67 0 -112.5 -33.5
t-66.5 -80.5h-61q24 71 87 120t158 49t144.5 -52t47.5 -131h161l54 302h-704l9 54h909z" />
    <glyph glyph-name="dvTT_RA" horiz-adv-x="647" 
d="M212.5 452.5q-73.5 -52.5 -91.5 -152.5q-4 -26 -4 -38q0 -70 48 -113.5t127 -43.5q90 0 154 56.5t79 146.5h61q-17 -102 -82.5 -170.5t-162.5 -84.5l122 -156h-65l-117 152h-4l-171 -152h-72l181 160q-75 18 -118.5 70.5t-43.5 128.5q0 25 4 46q22 127 113 192.5
t222 65.5h32l22 126h-423l9 54h710l-10 -54h-223l-32 -181h-91q-100 0 -173.5 -52.5z" />
    <glyph glyph-name="dvTTH_RA" horiz-adv-x="674" 
d="M423 686l-24 -135q86 -9 140 -65t54 -140q0 -21 -5 -49q-16 -95 -83.5 -159t-161.5 -81l126 -161h-65l-118 154l-174 -154h-72l184 162q-76 16 -121 70t-45 132q0 26 4 47q12 70 51.5 123t97.5 84.5t125 37.5l25 134h-336l10 54h735l-10 -54h-337zM528 338
q0 71 -46 115.5t-123 44.5q-56 0 -106 -24.5t-84 -68.5t-44 -100q-3 -19 -3 -38q0 -71 46 -116t122 -45q56 0 106.5 24.5t84.5 68.5t44 100q3 20 3 39z" />
    <glyph glyph-name="dvDD_RA" horiz-adv-x="578" 
d="M216 485.5q-43 -20.5 -52 -72.5q-2 -14 -2 -19q0 -38 29.5 -56t75.5 -18h45q77 0 127.5 -33t50.5 -102q0 -16 -3 -34q-12 -64 -58.5 -106.5t-124.5 -54.5l124 -158h-65l-118 154l-174 -154h-72l184 162q-68 14 -105.5 55.5t-37.5 99.5q0 16 3 31h64q-2 -9 -2 -26
q0 -53 39 -85t114 -32q70 0 114.5 32.5t53.5 83.5q2 9 2 26q0 51 -38 72.5t-97 21.5h-41q-64 0 -109 28t-45 86q0 13 3 28q12 73 69.5 105.5t133.5 32.5h127l23 133h-426l9 54h635l-10 -54h-146l-32 -180h-168q-57 0 -100 -20.5z" />
    <glyph glyph-name="dvDDH_RA" horiz-adv-x="636" 
d="M279 490q-61 -26 -103 -78t-55 -127q-4 -21 -4 -45q0 -81 53.5 -130t145.5 -49q77 0 133.5 40.5t68.5 104.5q2 16 2 24q0 40 -25.5 65t-67.5 25q-45 0 -78.5 -26.5t-40.5 -70.5q-2 -14 -2 -21h-48q0 16 3 28q11 64 59.5 101t116.5 37q63 0 101.5 -37t38.5 -96
q0 -14 -3 -31q-14 -76 -74 -127.5t-149 -62.5l123 -157h-65l-118 154l-174 -154h-72l186 164q-81 19 -129 76.5t-48 140.5q0 21 5 51q16 90 65.5 151.5t122 91.5t156.5 30h45l22 124h-445l10 54h695l-10 -54h-190l-29 -170h-90q-71 0 -132 -26z" />
    <glyph glyph-name="dvNN_RA" horiz-adv-x="845" 
d="M930 686h-141l-121 -686h-60l47 267l-338 -296h-76l425 369l60 346h-211l-39 -226q-16 -87 -70.5 -140.5t-140.5 -53.5q-74 0 -116 42t-42 110q0 23 4 42l39 226h-122l9 54h902zM453 686h-240l-41 -231q-3 -16 -3 -32q0 -47 26.5 -74.5t73.5 -27.5q56 0 94 37t49 97z" />
    <glyph glyph-name="dvT_RA" horiz-adv-x="691" 
d="M775 686h-140l-121 -686h-62l51 289l-341 -289h-85l1 4l435 357q-12 54 -56 88t-112 34q-81 0 -142.5 -49.5t-76.5 -136.5h-64q12 73 52 126.5t99 82t128 28.5q73 0 118.5 -31t66.5 -78l46 261h-546l10 54h749z" />
    <glyph glyph-name="dvTH_RA" horiz-adv-x="758" 
d="M852 740l-9 -54h-141l-121 -686h-64l43 239q-23 -44 -72 -80h1l-330 -234h-81v4l250 174h-15q-108 0 -171 57t-63 154q0 28 6 59q3 21 11 47h101q91 0 157 33t81 117q2 9 2 26q0 44 -26 71t-75 27q-70 0 -110.5 -49.5t-39.5 -124.5h-58q1 65 27.5 117t75.5 82t114 30
q71 0 112.5 -39.5t41.5 -103.5q0 -11 -4 -37q-17 -100 -94.5 -148.5t-190.5 -48.5q-47 0 -63 1q-6 -27 -6 -52q0 -76 49.5 -119.5t139.5 -43.5q59 0 112.5 26t91 74t48.5 110l65 372h205z" />
    <glyph glyph-name="dvD_RA" horiz-adv-x="610" 
d="M215.5 467.5q-66.5 -45.5 -81.5 -132.5q-3 -19 -3 -37q0 -63 39 -100.5t106 -37.5q37 0 74 15l4 3l2 -1q39 18 66.5 50.5t35.5 80.5h58l-55 -319h-63l37 206q-23 -32 -53 -50l-242 -198h-72l200 161h-16q-84 0 -135.5 49t-51.5 133q0 21 5 49q20 114 104.5 171.5
t201.5 57.5h81l22 118h-452l10 54h666l-10 -54h-150l-31 -173h-140q-90 0 -156.5 -45.5z" />
    <glyph glyph-name="dvDH_RA" horiz-adv-x="708" 
d="M793 686h-139l-122 -686h-63l42 236q-26 -39 -62 -68l-279 -230h-73l212 171q-21 -4 -50 -4q-81 0 -134 38t-53 104q0 15 3 31q12 63 55 99.5t95 43.5v2q-45 11 -74.5 44t-29.5 87q0 17 3 35q12 71 64.5 115.5t127.5 44.5q66 0 103 -33.5t37 -91.5q0 -25 -10 -62h-50
q7 24 7 46q0 41 -24 64t-69 23q-37 0 -68 -19.5t-48.5 -52.5t-17.5 -71q0 -48 34 -75t98 -27h63l-9 -53h-53q-81 0 -125.5 -38t-44.5 -98q0 -50 40 -77t103 -27q59 0 111.5 25.5t89.5 71.5t49 105l60 339l7 42h203z" />
    <glyph glyph-name="dvN_RA" horiz-adv-x="810" 
d="M894 686h-140l-122 -686h-58l39 216l-324 -286h-73l405 351l30 171h-248q44 -41 44 -107q0 -16 -3 -34q-9 -54 -41 -95t-78.5 -63.5t-99.5 -22.5q-77 0 -124 43t-47 112q0 17 3 35q16 87 80 136.5t157 49.5h366l32 180h-665l10 54h867zM363 422.5q-32 29.5 -84 29.5
q-62 0 -107.5 -37.5t-55.5 -97.5q-2 -9 -2 -26q0 -48 32 -77t86 -29q44 0 81.5 22t59.5 59t22 80q0 47 -32 76.5z" />
    <glyph glyph-name="dvP_RA" horiz-adv-x="649" 
d="M734 686h-141l-121 -686h-63l53 303q-18 -27 -47 -49l-306 -262h-73l262 219q-8 -1 -25 -1q-85 0 -130 47.5t-45 131.5q0 30 6 63l41 234h-119l10 54h707zM530 686h-322l-40 -234q-5 -32 -5 -55q0 -64 33.5 -99.5t99.5 -35.5q48 0 88 22t65.5 58.5t33.5 80.5z" />
    <glyph glyph-name="dvPH_RA" horiz-adv-x="985" 
d="M574 686l-41 -235q31 52 83 83.5t121 31.5q79 0 126.5 -47.5t47.5 -128.5q0 -26 -4 -49q-13 -72 -49.5 -124.5t-89 -80t-112.5 -27.5q-35 0 -61 8l9 51q21 -6 48 -6q70 0 122.5 47.5t67.5 129.5q3 20 3 36q0 63 -37.5 99.5t-97.5 36.5q-56 0 -98.5 -27t-67.5 -69t-33 -89
v1l-58 -327h-63l53 302q-21 -31 -52 -53l-296 -258h-72l260 220q-6 -1 -18 -1q-83 0 -125.5 45.5t-42.5 127.5q0 30 6 66l43 237h-120l10 54h1044l-10 -54h-496zM510 686h-301l-42 -237q-6 -31 -6 -59q0 -61 31.5 -94.5t95.5 -33.5q67 0 113.5 43t61.5 110z" />
    <glyph glyph-name="dvB_RA" horiz-adv-x="689" 
d="M783 740l-10 -54h-140l-120 -686h-62l38 215q-23 -34 -48 -55l-261 -211h-71l196 155q-24 -2 -35 -2q-59 0 -105.5 23.5t-73 66.5t-26.5 101q0 25 4 46q13 72 53 125.5t99.5 82.5t129.5 29q71 0 117.5 -34t62.5 -86l40 230h-545l10 54h747zM278 518q-37 -13 -67 -37
l244 -260q24 26 38.5 56.5t19.5 61.5q3 18 3 37q0 65 -41 110t-121 45q-39 0 -76 -13zM122 298q0 -70 47 -110t120 -40q81 0 141 50l-244 261q-47 -50 -60 -122q-4 -19 -4 -39z" />
    <glyph glyph-name="dvBH_RA" horiz-adv-x="800" 
d="M893 740l-9 -54h-141l-121 -686h-59l38 215l-335 -285h-74l418 349l22 122h-199l-12 -68q-16 -97 -69.5 -149t-134.5 -52q-69 0 -110 36.5t-41 98.5q0 16 3 32q14 73 72.5 114t139.5 41h103l17 97q5 30 5 49q0 45 -21 69t-63 24q-46 0 -79 -30t-43 -84q-2 -13 -2 -40h-62
q0 23 3 42q13 77 64 122.5t126 45.5q69 0 102 -37.5t33 -105.5q0 -29 -6 -64l-16 -88h199l50 286h202zM375 401h-103q-61 0 -103.5 -34.5t-42.5 -89.5q0 -42 27 -67t71 -25q53 0 89.5 38t48.5 106z" />
    <glyph glyph-name="dvM_RA" horiz-adv-x="771" 
d="M858 686h-141l-121 -686h-59l39 217l-338 -287h-74l419 350l26 144h-201l-15 -84q-17 -97 -70.5 -149t-134.5 -52q-69 0 -110 37t-41 99q0 16 3 32q14 79 73.5 124t141.5 45h104l37 210h-367l10 54h828zM656 686h-202l-37 -210h201zM349 424h-103q-56 0 -96 -31.5
t-50 -84.5q-2 -9 -2 -25q0 -41 26.5 -65.5t70.5 -24.5q54 0 90 37.5t49 106.5z" />
    <glyph glyph-name="dvY_RA" horiz-adv-x="733" 
d="M817 686h-141l-120 -686h-64l41 233q-33 -46 -80 -74l-308 -219h-79l1 5l251 175h-17q-107 0 -168 58.5t-61 158.5q0 30 6 64q3 18 10 44h16q90 0 145.5 38t71.5 129l13 74h-308l10 54h790zM612 686h-215l-15 -83q-18 -100 -79 -147t-160 -49l-3 -11q-5 -24 -5 -54
q0 -79 48.5 -123.5t134.5 -44.5q56 0 106 23.5t84.5 66t46.5 97.5z" />
    <glyph glyph-name="dvL_RA" horiz-adv-x="895" 
d="M718 686l-24 -142q58 -12 90 -57t32 -113q0 -23 -5 -55q-19 -107 -89.5 -173.5t-180.5 -66.5q-13 0 -39 2l11 57q18 -2 29 -2q82 0 136 51t69 134q4 20 4 44q0 57 -28.5 91.5t-84.5 34.5q-71 0 -118 -54t-63 -146l-2 -13h-54l1 13q7 42 7 67q0 63 -28 98t-84 35
q-70 0 -115.5 -47t-58.5 -123q-4 -21 -4 -45q0 -65 36.5 -102.5t108.5 -37.5q9 0 29 2l-10 -57q-24 -2 -30 -2q-97 0 -148 52t-51 138q0 23 5 55q18 104 82 164t156 60q75 0 111 -45t39 -108h2q24 59 69 102t113 50l25 139h-636l10 54h959l-10 -54h-261zM652 -155l-118 154
l-174 -154h-72l203 179h86l140 -179h-65z" />
    <glyph glyph-name="dvV_RA" horiz-adv-x="676" 
d="M770 740l-10 -54h-140l-120 -686h-63l39 220q-28 -43 -66 -68l-243 -196h-72l193 152q-9 -1 -26 -1q-89 0 -143 49.5t-54 135.5q0 22 5 52q12 68 50.5 119.5t95 79t121.5 27.5q74 0 119.5 -31.5t60.5 -84.5l41 232h-532l10 54h734zM388.5 183q45.5 27 72.5 68t35 84
q3 18 3 37q0 62 -38 104t-116 42q-50 0 -95.5 -22t-77 -62.5t-41.5 -94.5q-3 -19 -3 -38q0 -68 42 -106.5t112 -38.5q61 0 106.5 27z" />
    <glyph glyph-name="dvSH_RA" horiz-adv-x="791" 
d="M884 740l-9 -54h-140l-121 -686h-63l30 170l-74 45l-274 -219h-76l1 6l306 239l-157 96l-212 -144h-74l1 8l240 163q-117 76 -117 180q0 12 4 38q12 73 70 120t140 47q74 0 117.5 -41t43.5 -102q0 -14 -3 -29q-11 -62 -48 -109t-108 -95l-4 -3l234 -142l90 512h203z
M311 398l16 11q57 37 89.5 74.5t40.5 88.5q2 16 2 23q0 43 -29 71.5t-80 28.5q-53 0 -94 -35t-49 -83q-2 -10 -2 -28q0 -85 89 -141z" />
    <glyph glyph-name="dvSS_RA" horiz-adv-x="655" 
d="M738 686h-140l-121 -686h-63l52 297q-27 -39 -63 -60l-293 -245h-73l259 211h-16q-85 0 -134 50.5t-49 138.5q0 29 6 60l43 234h-120l10 54h712zM535 686h-328l279 -275l3 16zM401 287.5q44 29.5 68 78.5l-272 267l-32 -183q-5 -28 -5 -49q0 -67 37 -105t103 -38
q57 0 101 29.5z" />
    <glyph glyph-name="dvS_RA" horiz-adv-x="866" 
d="M928 686h-118l-121 -686h-56l43 240l-269 -295h-64l339 362l10 58h-544l-29 -162q-3 -21 -3 -41q0 -54 25 -85t75 -31q102 0 124 149h56q-11 -93 -57 -148.5t-129 -55.5q-74 0 -114.5 45t-40.5 120q0 27 4 50l36 205h98q86 0 140.5 47.5t69.5 129.5l18 98h-395l10 54h902
zM749 686h-266l-17 -98q-11 -61 -39.5 -104t-67.5 -69h342z" />
    <glyph glyph-name="dvH_RA" horiz-adv-x="586" 
d="M690 740l-10 -54h-145l-23 -130l-8 -47h-186q-52 0 -89 -21.5t-45 -67.5q-2 -12 -2 -17q0 -28 18.5 -48t49.5 -29q28 5 54 5q76 0 123.5 -35t56.5 -87l-141 -120h-62l144 122q-13 30 -45 50t-81 20q-77 0 -130.5 -51.5t-67.5 -127.5q-4 -19 -4 -40q0 -61 37 -99t106 -38
q63 0 109.5 31.5t66.5 73.5h58q-14 -41 -47 -77t-82.5 -58t-109.5 -22q-95 0 -146.5 52t-51.5 134q0 27 4 48q12 67 51.5 119.5t99.5 80.5q-31 14 -51 39.5t-20 60.5q0 16 2 24q11 62 61 93.5t124 31.5h143l23 130h-439l10 54h645z" />
    <glyph glyph-name="dvLL_RA" horiz-adv-x="998" 
d="M797 686l-24 -132q68 -12 107.5 -59t39.5 -118q0 -25 -4 -48q-14 -82 -69 -140t-131 -76l127 -162h-65l-118 154l-174 -154h-72l184 162q-54 14 -86 52t-37 88h-3q-28 -64 -89.5 -105.5t-139.5 -41.5q-84 0 -136.5 49t-52.5 130q0 24 4 44q12 68 49.5 119.5t93 80
t117.5 28.5q79 0 125 -40t58 -104h2q32 60 85 99t124 44l23 130h-717l10 54h1064l-10 -54h-285zM458 366q0 61 -37 98t-102 37q-74 0 -129.5 -47.5t-68.5 -124.5q-3 -18 -3 -35q0 -60 38.5 -96t102.5 -36q74 0 128 46.5t68 120.5q3 20 3 37zM857 365q0 62 -38.5 99
t-101.5 37q-75 0 -129.5 -48t-68.5 -124q-3 -18 -3 -35q0 -60 37 -96t102 -36q73 0 129.5 46.5t69.5 120.5q3 20 3 36z" />
    <glyph glyph-name="dvKx_RA" horiz-adv-x="1026" 
d="M617 686l-41 -235q30 52 80.5 83.5t117.5 31.5q79 0 128.5 -49t49.5 -129q0 -22 -5 -50q-19 -108 -88 -168.5t-162 -60.5q-31 0 -59 7l9 52q16 -5 46 -5q69 0 122.5 47t67.5 129q3 20 3 37q0 62 -37.5 98.5t-97.5 36.5q-81 0 -131.5 -53.5t-64.5 -126.5l-58 -331h-61
l39 222q-27 -41 -62 -66l-247 -202h-72l195 158q-6 -1 -19 -1q-82 0 -131.5 47.5t-49.5 129.5q0 21 5 51q12 68 49 119.5t90.5 79.5t115.5 28q70 0 111.5 -31t55.5 -82l41 233h-545l10 54h1099l-9 -54h-495zM497 344q2 18 2 26q0 60 -34.5 100.5t-107.5 40.5q-46 0 -88 -21
t-71.5 -60.5t-38.5 -91.5q-4 -19 -4 -41q0 -64 38.5 -100t101.5 -36q37 0 71 13l13 10l5 -2q44 22 72.5 63t37.5 85zM56.5 94.5q10.5 -12.5 8.5 -32.5q-4 -19 -19 -31t-34 -12q-17 0 -27.5 10t-10.5 26q0 21 16 36.5t37 15.5q19 0 29.5 -12.5z" />
    <glyph glyph-name="dvKHx_RA" horiz-adv-x="926" 
d="M1020 740l-10 -54h-140l-120 -686h-64l41 236q-27 -42 -72 -67.5t-103 -25.5q-23 0 -40 4q-37 -60 -88 -96l-234 -197h-72v4l174 143q-9 -1 -27 -1q-96 0 -150.5 48t-54.5 133q0 22 5 54l28 162h38q145 0 172 156l23 133h-300l10 54h984zM806 686h-416l-24 -140
q-19 -106 -76 -151.5t-138 -45.5h-4l-21 -121q-4 -26 -4 -38q0 -63 40 -99.5t112 -36.5q61 0 109.5 31.5t78.5 80.5q-35 21 -55 58.5t-20 86.5q0 24 4 44q10 59 42.5 103.5t80 68.5t102.5 24q61 0 98 -25.5t51 -67.5zM686 236.5q45 42.5 59 99.5l4 23q1 6 1 19
q0 52 -32 87.5t-96 35.5t-113.5 -41t-61.5 -110q-3 -18 -3 -33q0 -58 36 -90.5t92 -32.5q69 0 114 42.5zM64.5 -35.5q10.5 -12.5 8.5 -32.5q-4 -19 -19 -31t-34 -12q-17 0 -27.5 10t-10.5 26q0 21 16 36.5t37 15.5q19 0 29.5 -12.5z" />
    <glyph glyph-name="dvGx_RA" horiz-adv-x="727" 
d="M821 740l-10 -54h-140l-120 -686h-63l47 266l-336 -286h-77l424 355l61 351h-192l-40 -233q-13 -73 -57.5 -119t-122.5 -46q-65 0 -99 35.5t-34 92.5q0 18 3 37l6 27h62l-6 -31q-3 -13 -3 -28q0 -35 18.5 -56.5t57.5 -21.5q49 0 75.5 31t34.5 77l42 235h-326l10 54h785z
M88.5 145.5q10.5 -12.5 8.5 -32.5q-4 -19 -19 -31t-34 -12q-17 0 -27.5 10t-10.5 26q0 21 16 36.5t37 15.5q19 0 29.5 -12.5z" />
    <glyph glyph-name="dvJx_RA" horiz-adv-x="835" 
d="M920 686h-141l-120 -686h-60l44 259l-329 -289h-74l414 357l22 124h-214l-8 -46q-15 -88 -72 -142t-140 -54q-75 0 -117 41.5t-42 110.5q0 24 4 44l18 99h64l-18 -99q-3 -18 -3 -35q0 -48 25.5 -76t72.5 -28q57 0 97 38t51 101l17 99h275l32 182h-692l10 54h893z
M123.5 79.5q10.5 -12.5 8.5 -32.5q-4 -19 -19 -31t-34 -12q-17 0 -27.5 10t-10.5 26q0 21 16 36.5t37 15.5q19 0 29.5 -12.5z" />
    <glyph glyph-name="dvPHx_RA" horiz-adv-x="1011" 
d="M599 686l-41 -234q31 52 83 83t121 31q79 0 126.5 -47.5t47.5 -128.5q0 -26 -4 -49q-13 -72 -49 -124.5t-88.5 -80t-112.5 -27.5q-36 0 -62 8l9 51q23 -6 48 -6q70 0 122.5 47.5t67.5 129.5q3 20 3 36q0 63 -37.5 99.5t-97.5 36.5q-81 0 -132 -52.5t-66 -124.5l-58 -334
h-64l53 302q-24 -35 -54 -55l-294 -256h-71l259 220q-6 -1 -17 -1q-83 0 -126 45.5t-43 127.5q0 30 6 66l43 237h-174l9 54h1099l-10 -54h-496zM536 686h-302l-42 -237q-5 -25 -5 -57q0 -62 31 -96t95 -34q70 0 117.5 47t59.5 118zM45.5 176.5q10.5 -12.5 8.5 -32.5
q-4 -19 -19 -31t-34 -12q-17 0 -27.5 10t-10.5 26q0 21 16 36.5t37 15.5q19 0 29.5 -12.5z" />
    <glyph glyph-name="dvK_R" horiz-adv-x="748" 
d="M592 686l-41 -235q30 52 80.5 83.5t117.5 31.5q79 0 128.5 -49t49.5 -129q0 -21 -5 -49h-64q3 20 3 37q0 62 -37.5 98.5t-97.5 36.5q-81 0 -131.5 -53.5t-64.5 -126.5l-58 -331h-61l39 222q-27 -41 -62 -66l-247 -202h-72l198 158q-7 -1 -22 -1q-82 0 -131.5 47.5
t-49.5 129.5q0 21 5 51q12 68 49 119.5t90.5 79.5t115.5 28q70 0 111.5 -31t55.5 -82l41 233h-506l10 54h958l-10 -54h-392zM472 344q2 18 2 26q0 60 -34.5 100.5t-107.5 40.5q-46 0 -88 -21t-71.5 -60.5t-38.5 -91.5q-4 -19 -4 -41q0 -64 38.5 -100t101.5 -36q56 0 98 25.5
t67 64t34 79.5z" />
    <glyph glyph-name="dvKH_R" horiz-adv-x="676" 
d="M127 228q-4 -26 -4 -38q0 -63 40 -99.5t112 -36.5q63 0 111 31.5t77 80.5q-37 20 -57 55t-20 82q0 24 4 44q16 93 84 148t164 55q84 0 132.5 -42.5t48.5 -117.5q0 -23 -4 -43q-16 -94 -85 -149t-164 -55q-25 0 -52 5q-40 -75 -109 -115l-214 -179h-72l1 4l170 141
q-5 -1 -17 -1q-99 0 -156 49.5t-57 136.5q0 21 5 51l28 162h38q66 0 111.5 34t60.5 122l23 133h-300l10 54h848l-9 -54h-485l-24 -140q-19 -106 -76 -151.5t-138 -45.5h-4zM444 314q0 -56 35 -88.5t96 -32.5q71 0 121 42t62 112q3 18 3 34q0 56 -35 88t-96 32
q-70 0 -120 -42t-63 -112q-3 -16 -3 -33z" />
    <glyph glyph-name="dvG_R" horiz-adv-x="462" 
d="M628 740l-10 -54h-203l-40 -233q-13 -73 -57.5 -119t-122.5 -46q-65 0 -99.5 35t-34.5 92q0 12 4 38l6 27h62l-6 -31q-3 -13 -3 -28q0 -35 18.5 -56.5t57.5 -21.5q49 0 75.5 31t34.5 77l42 235h-326l10 54h592zM122 -20l438 367l-11 -69l-350 -298h-77z" />
    <glyph glyph-name="dvGH_R" horiz-adv-x="441" 
d="M210 604q-3 -18 -3 -35q0 -47 31 -71t97 -24h50l-10 -53h-53q-82 0 -128 -34t-56 -90q-2 -9 -2 -26q0 -54 41.5 -81.5t111.5 -27.5q61 0 114 25.5t88.5 71t45.5 102.5h54q-11 -61 -45.5 -112.5t-85.5 -86.5l-261 -217h-72l209 169q-30 -5 -56 -5q-98 0 -154 39t-56 110
q0 17 3 35q11 64 58.5 104.5t108.5 48.5l1 2q-46 7 -72.5 34.5t-26.5 79.5q0 20 4 40l14 84h-134l10 54h622l-10 -54h-424z" />
    <glyph glyph-name="dvNG_R" horiz-adv-x="650" 
d="M744 740l-10 -54h-212l-23 -133l-4 -19v-2l-5 -26h-174q-57 0 -100 -20.5t-52 -72.5q-2 -14 -2 -19q0 -38 29.5 -56t75.5 -18h45q77 0 127.5 -33t50.5 -102q0 -16 -3 -34q-11 -62 -56.5 -105t-120.5 -55l125 -159h-65l-118 154l-174 -154h-72l182 161q-70 13 -109 55
t-39 102q0 15 3 30h64q-2 -9 -2 -26q0 -53 39 -85t114 -32q70 0 114.5 32.5t53.5 83.5q2 9 2 26q0 51 -38 72.5t-97 21.5h-41q-64 0 -109 28t-45 86q0 13 3 28q12 73 69.5 105.5t133.5 32.5h133l23 133h-432l9 54h707zM622.5 433q10.5 -10 10.5 -25q0 -21 -16 -36.5
t-37 -15.5q-19 0 -29 12.5t-7 31.5q4 18 18.5 30.5t33.5 12.5q16 0 26.5 -10zM253 -177l88 -193h-66l-86 193h64z" />
    <glyph glyph-name="dvC_R" horiz-adv-x="468" 
d="M674 740l-10 -54h-638l10 54h638zM433.5 183.5q45.5 25.5 76.5 68t39 93.5h55q-9 -59 -41 -109.5t-81 -82.5l-239 -199h-71l187 152q-24 -2 -38 -2q-84 0 -138.5 43.5t-54.5 120.5q0 11 4 39q11 59 46 104t89 69h-198l9 51h361l-9 -51h-33q-79 0 -135 -46.5t-68 -117.5
q-3 -16 -3 -31q0 -60 41 -93.5t104 -33.5q52 0 97.5 25.5z" />
    </font>
</defs>
</svg>
